Интеллигентный торрент-трекер
canvas not supported
Нас вместе: 4 106 348

VA - Uplifting Only - Orchestral Trance - Year Mix 2015 (Mixed by Ori Uplift) (2016) [FLAC|Lossless|tracks+.cue] <Uplifting Trance, Emotional Trance, Orchestral Trance>


 
 
RSS
Начать новую тему   Ответить на тему    Торрент-трекер NNM-Club -> Electronic -> Trance (Lossless)
Автор Сообщение
Lazyra ®
Модератор Electronic
RG Музыки
 
Стаж: 5 лет 9 мес.
Сообщений: 4318
Ratio: 1549,865
Раздал: 49,63 TB
Поблагодарили: 88538
100%
Откуда: Владимир
russia.gif
VA - Uplifting Only - Orchestral Trance - Year Mix 2015 (Mixed by Ori Uplift) (2016)



Год: 2016
Жанр: Uplifting Trance, Emotional Trance, Orchestral Trance
Продолжительность: 02:09:52
Лейбл: Abora Recordings
Каталог №: UPONLY010
Тип рипа: tracks+.cue
Кодек: FLAC
Битрейт: Lossless

Треклист:

Треклист:
01. illitheas - Endless (Intro Mix Edit) (6:22)
02. Ahmed Romel - Paradisum (5:06)
03. SoundLift - Wonderful Feeling (6:26)
04. Afternova - Into the Sky (2015 Remake) (4:57)
05. Kelly Andrew - Xanadu (Orchestral Trance Mix) (5:43)
06. Afternova - For All Mankind (Club Mix) (4:33)
07. Sergey Nevone & Simon O'Shine - Ethereal Rhapsody (6:40)
08. SoundLift - Wonder (5:46)
09. Etasonic - Tears for You (6:29)
10. SoundLift - Victorious (6:15)
11. SoundLift - Honor (8:13)

Продолжительность: 01:06:30
Код: выделить все

Exact Audio Copy V1.3 from 2. September 2016

EAC extraction logfile from 4. November 2016, 11:56

Ori Uplift / Uplifting Only: Orchestral Trance Year Mix 2015

Used drive  : PIONEER DVD-RW DVR-219RS   Adapter: 1  ID: 0

Read mode               : Secure
Utilize accurate stream : Yes
Defeat audio cache      : Yes
Make use of C2 pointers : No

Read offset correction                      : 6
Overread into Lead-In and Lead-Out          : No
Fill up missing offset samples with silence : Yes
Delete leading and trailing silent blocks   : No
Null samples used in CRC calculations       : Yes
Used interface                              : Native Win32 interface for Win NT & 2000
Gap handling                                : Appended to previous track

Used output format              : User Defined Encoder
Selected bitrate                : 1024 kBit/s
Quality                         : High
Add ID3 tag                     : No
Command line compressor         : C:\Program Files (x86)\Exact Audio Copy\FLAC\FLAC.EXE
Additional command line options : -8 -e -V -T "ARTIST=%artist%" -T "TITLE=%title%" -T "ALBUM=%albumtitle%" -T "DATE=%year%" -T "TRACKNUMBER=%tracknr%" -T "GENRE=%genre%" -T "PERFORMER=%albuminterpret%" -T "COMPOSER=%composer%" %haslyrics%--tag-from-file=LYRICS="%lyricsfile%"%haslyrics% -T "ALBUMARTIST=%albumartist%" -T "DISCNUMBER=%cdnumber%" -T "TOTALDISCS=%totalcds%" -T "TOTALTRACKS=%numtracks%" -T "COMMENT=%comment%" %source% -o %dest%

TOC of the extracted CD

     Track |   Start  |  Length  | Start sector | End sector
    ---------------------------------------------------------
        1  |  0:00.00 |  6:22.07 |         0    |    28656
        2  |  6:22.07 |  5:06.02 |     28657    |    51608
        3  | 11:28.09 |  6:26.21 |     51609    |    80579
        4  | 17:54.30 |  4:57.60 |     80580    |   102914
        5  | 22:52.15 |  5:43.34 |    102915    |   128673
        6  | 28:35.49 |  4:33.53 |    128674    |   149201
        7  | 33:09.27 |  6:40.09 |    149202    |   179210
        8  | 39:49.36 |  5:46.06 |    179211    |   205166
        9  | 45:35.42 |  6:29.44 |    205167    |   234385
       10  | 52:05.11 |  6:15.51 |    234386    |   262561
       11  | 58:20.62 |  8:13.70 |    262562    |   299606

Track  1

     Filename N:\Ori Uplift - Uplifting Only - Orchestral Trance Year Mix 2015 (2016) [FLAC]\01 - illitheas - Endless (Intro Mix Edit).wav

     Pre-gap length  0:00:02.00

     Peak level 100.0 %
     Extraction speed 2.0 X
     Track quality 99.9 %
     Test CRC 5EC68352
     Copy CRC 5EC68352
     Track not present in AccurateRip database
     Copy OK

Track  2

     Filename N:\Ori Uplift - Uplifting Only - Orchestral Trance Year Mix 2015 (2016) [FLAC]\02 - Ahmed Romel - Paradisum.wav

     Peak level 100.0 %
     Extraction speed 2.3 X
     Track quality 100.0 %
     Test CRC 9C2C108E
     Copy CRC 9C2C108E
     Track not present in AccurateRip database
     Copy OK

Track  3

     Filename N:\Ori Uplift - Uplifting Only - Orchestral Trance Year Mix 2015 (2016) [FLAC]\03 - SoundLift - Wonderful Feeling.wav

     Peak level 100.0 %
     Extraction speed 2.6 X
     Track quality 100.0 %
     Test CRC 03C90C69
     Copy CRC 03C90C69
     Track not present in AccurateRip database
     Copy OK

Track  4

     Filename N:\Ori Uplift - Uplifting Only - Orchestral Trance Year Mix 2015 (2016) [FLAC]\04 - Afternova - Into the Sky (2015 Remake).wav

     Peak level 100.0 %
     Extraction speed 2.4 X
     Track quality 99.9 %
     Test CRC 9D613386
     Copy CRC 9D613386
     Track not present in AccurateRip database
     Copy OK

Track  5

     Filename N:\Ori Uplift - Uplifting Only - Orchestral Trance Year Mix 2015 (2016) [FLAC]\05 - Kelly Andrew - Xanadu (Orchestral Trance Mix).wav

     Peak level 100.0 %
     Extraction speed 3.0 X
     Track quality 100.0 %
     Test CRC EAF80673
     Copy CRC EAF80673
     Track not present in AccurateRip database
     Copy OK

Track  6

     Filename N:\Ori Uplift - Uplifting Only - Orchestral Trance Year Mix 2015 (2016) [FLAC]\06 - Afternova - For All Mankind (Club Mix).wav

     Peak level 100.0 %
     Extraction speed 3.1 X
     Track quality 100.0 %
     Test CRC CCD4C383
     Copy CRC CCD4C383
     Track not present in AccurateRip database
     Copy OK

Track  7

     Filename N:\Ori Uplift - Uplifting Only - Orchestral Trance Year Mix 2015 (2016) [FLAC]\07 - Sergey Nevone & Simon O'Shine - Ethereal Rhapsody.wav

     Peak level 100.0 %
     Extraction speed 3.4 X
     Track quality 100.0 %
     Test CRC 2A300A27
     Copy CRC 2A300A27
     Track not present in AccurateRip database
     Copy OK

Track  8

     Filename N:\Ori Uplift - Uplifting Only - Orchestral Trance Year Mix 2015 (2016) [FLAC]\08 - SoundLift - Wonder.wav

     Peak level 100.0 %
     Extraction speed 3.5 X
     Track quality 100.0 %
     Test CRC E874FC86
     Copy CRC E874FC86
     Track not present in AccurateRip database
     Copy OK

Track  9

     Filename N:\Ori Uplift - Uplifting Only - Orchestral Trance Year Mix 2015 (2016) [FLAC]\09 - Etasonic - Tears for You.wav

     Peak level 100.0 %
     Extraction speed 3.7 X
     Track quality 100.0 %
     Test CRC D3F1C9B2
     Copy CRC D3F1C9B2
     Track not present in AccurateRip database
     Copy OK

Track 10

     Filename N:\Ori Uplift - Uplifting Only - Orchestral Trance Year Mix 2015 (2016) [FLAC]\10 - SoundLift - Victorious.wav

     Peak level 100.0 %
     Extraction speed 3.9 X
     Track quality 100.0 %
     Test CRC BF74BAE7
     Copy CRC BF74BAE7
     Track not present in AccurateRip database
     Copy OK

Track 11

     Filename N:\Ori Uplift - Uplifting Only - Orchestral Trance Year Mix 2015 (2016) [FLAC]\11 - SoundLift - Honor.wav

     Peak level 100.0 %
     Extraction speed 4.1 X
     Track quality 100.0 %
     Test CRC 0B09B37B
     Copy CRC 0B09B37B
     Track not present in AccurateRip database
     Copy OK

None of the tracks are present in the AccurateRip database

No errors occurred

End of status report

---- CUETools DB Plugin V2.1.6

[CTDB TOCID: s4_XoRDRjDroV2RNGKrS57EW3Xw-] disk not present in database
Submit result: s4_XoRDRjDroV2RNGKrS57EW3Xw- has been uploaded

==== Log checksum 1047FC2FCC920192BF091E0C5A486B7F4752439D06102791B6BB083B5C20EBBC ====

Код: выделить все

-----------------------

DON'T MODIFY THIS FILE

-----------------------

PERFORMER: auCDtect Task Manager, ver. 1.6.0 RC1 build 1.6.0.1
Copyright (c) 2008-2010 y-soft. All rights reserved
http://y-soft.org

ANALYZER: auCDtect: CD records authenticity detector, version 0.8.2
Copyright (c) 2004 Oleg Berngardt. All rights reserved.
Copyright (c) 2004 Alexander Djourik. All rights reserved.

FILE: 11 - SoundLift - Honor.flac
  Size: 60202442 Hash: 3BEF7CE36FFD84632FED78A3E5DBD9ED Accuracy: -m0
  Conclusion: CDDA 100%
  Signature: 726BAC2A085D0488E0FB449C06955FC8602E37C0
FILE: 10 - SoundLift - Victorious.flac
  Size: 48633301 Hash: 70666156A08571326032D03BA75B9D02 Accuracy: -m0
  Conclusion: CDDA 100%
  Signature: CA0DD4B76E0759BEB6D7CDDFBB0840B6FB9830C2
FILE: 09 - Etasonic - Tears for You.flac
  Size: 48836770 Hash: B415940427A590D7850375268DD3AE29 Accuracy: -m0
  Conclusion: CDDA 100%
  Signature: 8C471FA6BA58B919AED5302A84FFAFB422E99990
FILE: 08 - SoundLift - Wonder.flac
  Size: 43578342 Hash: 787CFE6042CCD005BC2C8EF124AF2736 Accuracy: -m0
  Conclusion: CDDA 100%
  Signature: 322416D42A6B1CAD06BC461336CA1200E20B2353
FILE: 07 - Sergey Nevone & Simon O'Shine - Ethereal Rhapsody.flac
  Size: 46665682 Hash: CBF9D491CB2D551B454D694559D63BD4 Accuracy: -m0
  Conclusion: CDDA 100%
  Signature: 0C31D8F198A953EED4958831AF4207D8CAEE04B2
FILE: 06 - Afternova - For All Mankind (Club Mix).flac
  Size: 32057741 Hash: 0E472A2BE694EF94AD8321F90A1037CE Accuracy: -m0
  Conclusion: CDDA 99%
  Signature: 50E37DD837532EE8327A284AF6303694A3887DF6
FILE: 05 - Kelly Andrew - Xanadu (Orchestral Trance Mix).flac
  Size: 42505577 Hash: 58117A3E1528A25EABF900558A7457A1 Accuracy: -m0
  Conclusion: CDDA 100%
  Signature: 196768F47242F2C4F95CEB77F836DC6A6514D67E
FILE: 04 - Afternova - Into the Sky (2015 Remake).flac
  Size: 36906572 Hash: 6E51DBF1E600E6EC2ED7E1FDF6AFF209 Accuracy: -m0
  Conclusion: CDDA 100%
  Signature: 5A3A47A99EA112BC3804BEFB0C782045F319C150
FILE: 03 - SoundLift - Wonderful Feeling.flac
  Size: 50440234 Hash: 5833107BFFA7FE7F414828C0B78FFDD2 Accuracy: -m0
  Conclusion: CDDA 100%
  Signature: 8D920E5DCB7D34112C30F1D4D399A5CD0462009E
FILE: 02 - Ahmed Romel - Paradisum.flac
  Size: 36311221 Hash: 4D2DCB268D082C21EC049A6AAD7072DB Accuracy: -m0
  Conclusion: CDDA 100%
  Signature: F46CD3612C9E0D9C285284B34EB889D4F03318BB
FILE: 01 - illitheas - Endless (Intro Mix Edit).flac
  Size: 48664877 Hash: 04E2455C876799C7F0DFE4143AD7A833 Accuracy: -m0
  Conclusion: CDDA 100%
  Signature: BE7B930DCB052D610BA40D6F352521F36D589365


Трек лист:
01. Mike van Fabio & Alex van ReeVe feat. Geert Huinink & Kim Kiona - Hope (Intro Edit) (5:09)
02. ReOrder & Sue McLaren - Hands of Time (4:38)
03. Mart Sine feat. Andrea Britton - Cast Away (5:09)
04. New World & Geert Huinink - Empyrean (5:25)
05. SoundLift - Unforgettable (5:33)
06. Afternova - Together We Are Strong (Manuel Rocca Remix) (4:55)
07. Aly & Fila feat Roxanne Emery - Shine (Club Mix) (6:00)
08. Dash Berlin feat. Roxanne Emery - Shelter (Photographer Remix) (5:17)
09. RAM & Susana - Someone Like You (RAM & Standerwick Remix) (5:33)
10. Mhammed El Alami feat. Nathan Brumley - Electric Waves (4:52)
11. illitheas - Sapphire Sky (4:36)
12. Mhammed El Alami & illitheas & Johannes Fischer - New Rise (6:15)

Продолжительность: 01:03:22
Код: выделить все

Exact Audio Copy V1.3 from 2. September 2016

EAC extraction logfile from 4. November 2016, 13:16

Ori Uplift / Uplifting Only: Orchestral Trance Year Mix 2015

Used drive  : PIONEER DVD-RW DVR-219RS   Adapter: 1  ID: 0

Read mode               : Secure
Utilize accurate stream : Yes
Defeat audio cache      : Yes
Make use of C2 pointers : No

Read offset correction                      : 6
Overread into Lead-In and Lead-Out          : No
Fill up missing offset samples with silence : Yes
Delete leading and trailing silent blocks   : No
Null samples used in CRC calculations       : Yes
Used interface                              : Native Win32 interface for Win NT & 2000
Gap handling                                : Appended to previous track

Used output format              : User Defined Encoder
Selected bitrate                : 1024 kBit/s
Quality                         : High
Add ID3 tag                     : No
Command line compressor         : C:\Program Files (x86)\Exact Audio Copy\FLAC\FLAC.EXE
Additional command line options : -8 -e -V -T "ARTIST=%artist%" -T "TITLE=%title%" -T "ALBUM=%albumtitle%" -T "DATE=%year%" -T "TRACKNUMBER=%tracknr%" -T "GENRE=%genre%" -T "PERFORMER=%albuminterpret%" -T "COMPOSER=%composer%" %haslyrics%--tag-from-file=LYRICS="%lyricsfile%"%haslyrics% -T "ALBUMARTIST=%albumartist%" -T "DISCNUMBER=%cdnumber%" -T "TOTALDISCS=%totalcds%" -T "TOTALTRACKS=%numtracks%" -T "COMMENT=%comment%" %source% -o %dest%

TOC of the extracted CD

     Track |   Start  |  Length  | Start sector | End sector
    ---------------------------------------------------------
        1  |  0:00.00 |  5:09.42 |         0    |    23216
        2  |  5:09.42 |  4:38.22 |     23217    |    44088
        3  |  9:47.64 |  5:09.43 |     44089    |    67306
        4  | 14:57.32 |  5:25.15 |     67307    |    91696
        5  | 20:22.47 |  5:33.71 |     91697    |   116742
        6  | 25:56.43 |  4:55.42 |    116743    |   138909
        7  | 30:52.10 |  6:00.03 |    138910    |   165912
        8  | 36:52.13 |  5:17.23 |    165913    |   189710
        9  | 42:09.36 |  5:33.68 |    189711    |   214753
       10  | 47:43.29 |  4:52.11 |    214754    |   236664
       11  | 52:35.40 |  4:36.23 |    236665    |   257387
       12  | 57:11.63 |  6:15.45 |    257388    |   285557

Track  1

     Filename N:\Ori Uplift - Uplifting Only - Orchestral Trance Year Mix 2015 (2016) [FLAC]\Disc 2\01 - Mike van Fabio & Alex van ReeVe feat. Geert Huinink & Kim Kiona - Hope (Intro Edit).wav

     Pre-gap length  0:00:02.00

     Peak level 100.0 %
     Extraction speed 2.7 X
     Track quality 100.0 %
     Test CRC 3D1D507C
     Copy CRC 3D1D507C
     Track not present in AccurateRip database
     Copy OK

Track  2

     Filename N:\Ori Uplift - Uplifting Only - Orchestral Trance Year Mix 2015 (2016) [FLAC]\Disc 2\02 - ReOrder & Sue McLaren - Hands of Time.wav

     Peak level 100.0 %
     Extraction speed 2.7 X
     Track quality 100.0 %
     Test CRC 006DD4D1
     Copy CRC 006DD4D1
     Track not present in AccurateRip database
     Copy OK

Track  3

     Filename N:\Ori Uplift - Uplifting Only - Orchestral Trance Year Mix 2015 (2016) [FLAC]\Disc 2\03 - Mart Sine feat. Andrea Britton - Cast Away.wav

     Peak level 100.0 %
     Extraction speed 2.7 X
     Track quality 100.0 %
     Test CRC EDD00F23
     Copy CRC EDD00F23
     Track not present in AccurateRip database
     Copy OK

Track  4

     Filename N:\Ori Uplift - Uplifting Only - Orchestral Trance Year Mix 2015 (2016) [FLAC]\Disc 2\04 - New World & Geert Huinink - Empyrean.wav

     Peak level 100.0 %
     Extraction speed 2.7 X
     Track quality 100.0 %
     Test CRC BE6E57E8
     Copy CRC BE6E57E8
     Track not present in AccurateRip database
     Copy OK

Track  5

     Filename N:\Ori Uplift - Uplifting Only - Orchestral Trance Year Mix 2015 (2016) [FLAC]\Disc 2\05 - SoundLift - Unforgettable.wav

     Peak level 100.0 %
     Extraction speed 2.5 X
     Track quality 99.9 %
     Test CRC 747DF2E2
     Copy CRC 747DF2E2
     Track not present in AccurateRip database
     Copy OK

Track  6

     Filename N:\Ori Uplift - Uplifting Only - Orchestral Trance Year Mix 2015 (2016) [FLAC]\Disc 2\06 - Afternova - Together We Are Strong (Manuel Rocca Remix).wav

     Peak level 100.0 %
     Extraction speed 2.7 X
     Track quality 100.0 %
     Test CRC 6B9C9D9F
     Copy CRC 6B9C9D9F
     Track not present in AccurateRip database
     Copy OK

Track  7

     Filename N:\Ori Uplift - Uplifting Only - Orchestral Trance Year Mix 2015 (2016) [FLAC]\Disc 2\07 - Aly & Fila feat Roxanne Emery - Shine (Club Mix).wav

     Peak level 100.0 %
     Extraction speed 2.7 X
     Track quality 100.0 %
     Test CRC 6372C53B
     Copy CRC 6372C53B
     Track not present in AccurateRip database
     Copy OK

Track  8

     Filename N:\Ori Uplift - Uplifting Only - Orchestral Trance Year Mix 2015 (2016) [FLAC]\Disc 2\08 - Dash Berlin feat. Roxanne Emery - Shelter (Photographer Remix).wav

     Peak level 100.0 %
     Extraction speed 2.7 X
     Track quality 100.0 %
     Test CRC B6F7C42C
     Copy CRC B6F7C42C
     Track not present in AccurateRip database
     Copy OK

Track  9

     Filename N:\Ori Uplift - Uplifting Only - Orchestral Trance Year Mix 2015 (2016) [FLAC]\Disc 2\09 - RAM & Susana - Someone Like You (RAM & Standerwick Remix).wav

     Peak level 100.0 %
     Extraction speed 2.7 X
     Track quality 100.0 %
     Test CRC 8C920EE8
     Copy CRC 8C920EE8
     Track not present in AccurateRip database
     Copy OK

Track 10

     Filename N:\Ori Uplift - Uplifting Only - Orchestral Trance Year Mix 2015 (2016) [FLAC]\Disc 2\10 - Mhammed El Alami feat. Nathan Brumley - Electric Waves.wav

     Peak level 100.0 %
     Extraction speed 2.4 X
     Track quality 99.9 %
     Test CRC 455E43F5
     Copy CRC 455E43F5
     Track not present in AccurateRip database
     Copy OK

Track 11

     Filename N:\Ori Uplift - Uplifting Only - Orchestral Trance Year Mix 2015 (2016) [FLAC]\Disc 2\11 - illitheas - Sapphire Sky.wav

     Peak level 100.0 %
     Extraction speed 2.7 X
     Track quality 100.0 %
     Test CRC C167A339
     Copy CRC C167A339
     Track not present in AccurateRip database
     Copy OK

Track 12

     Filename N:\Ori Uplift - Uplifting Only - Orchestral Trance Year Mix 2015 (2016) [FLAC]\Disc 2\12 - Mhammed El Alami & illitheas & Johannes Fischer - New Rise.wav

     Peak level 100.0 %
     Extraction speed 2.8 X
     Track quality 100.0 %
     Test CRC 27F1085F
     Copy CRC 27F1085F
     Track not present in AccurateRip database
     Copy OK

None of the tracks are present in the AccurateRip database

No errors occurred

End of status report

---- CUETools DB Plugin V2.1.6

[CTDB TOCID: d.fk9gNGWnlfc0sLdbBtz2EOhWA-] disk not present in database
Submit result: d.fk9gNGWnlfc0sLdbBtz2EOhWA- has been uploaded

==== Log checksum F5AC91D6D4E4D8928A52B394E264FFA809364E7E99F1AC3304A5837B83777756 ====

Код: выделить все

-----------------------

DON'T MODIFY THIS FILE

-----------------------

PERFORMER: auCDtect Task Manager, ver. 1.6.0 RC1 build 1.6.0.1
Copyright (c) 2008-2010 y-soft. All rights reserved
http://y-soft.org

ANALYZER: auCDtect: CD records authenticity detector, version 0.8.2
Copyright (c) 2004 Oleg Berngardt. All rights reserved.
Copyright (c) 2004 Alexander Djourik. All rights reserved.

FILE: 12 - Mhammed El Alami & illitheas & Johannes Fischer - New Rise.flac
  Size: 49190117 Hash: 8E5DA761A498C840C0456A923263E37A Accuracy: -m0
  Conclusion: CDDA 100%
  Signature: 0D599AA15B6404A4A7F00404DC092DCABFC18A10
FILE: 11 - illitheas - Sapphire Sky.flac
  Size: 36026149 Hash: ADB4FB988B8283C851E39C342DECAEE7 Accuracy: -m0
  Conclusion: CDDA 100%
  Signature: 590CC746E9767CEA5A1BCE4102AD2380C542FD91
FILE: 10 - Mhammed El Alami feat. Nathan Brumley - Electric Waves.flac
  Size: 39849652 Hash: 636934D43F8F6AA2785B3343F356966A Accuracy: -m0
  Conclusion: CDDA 100%
  Signature: FCF50C9AC58C563F56BF5C9E15BC453098030B63
FILE: 09 - RAM & Susana - Someone Like You (RAM & Standerwick Remix).flac
  Size: 41807563 Hash: 825D2E334A3B89F06943C82EA750AC2A Accuracy: -m0
  Conclusion: CDDA 87%
  Signature: 5A55C5355B0F63412599A0D100F74850CB65F0C9
FILE: 08 - Dash Berlin feat. Roxanne Emery - Shelter (Photographer Remix).flac
  Size: 42227716 Hash: 0662E4AB62F1A5E18833C9C1338D77DA Accuracy: -m0
  Conclusion: CDDA 100%
  Signature: 0BDFF601D9A807AEDEAEAE940B56275DAF989897
FILE: 07 - Aly & Fila feat Roxanne Emery - Shine (Club Mix).flac
  Size: 47991599 Hash: 55629443C9CC32E975D41B2CCB3287BE Accuracy: -m0
  Conclusion: CDDA 76%
  Signature: 39206809DD655D07B6ACBEE72ECA038981CE4DB5
FILE: 06 - Afternova - Together We Are Strong (Manuel Rocca Remix).flac
  Size: 37571820 Hash: A8CB794D12C0E08BA4FDD87272B67303 Accuracy: -m0
  Conclusion: CDDA 100%
  Signature: 7B4C3DA879DB1642B6018BC86E60AB40E8D2FB8D
FILE: 05 - SoundLift - Unforgettable.flac
  Size: 44149770 Hash: BBE3A76224A4BF8EF9F8F8C192E25EE8 Accuracy: -m0
  Conclusion: CDDA 100%
  Signature: 3D65416DE6C5EBB6605B2300A35E82F0F6A9DB7B
FILE: 04 - New World & Geert Huinink - Empyrean.flac
  Size: 41842749 Hash: 8B04BC828F5DA9B98CB75A1769F94701 Accuracy: -m0
  Conclusion: CDDA 100%
  Signature: 5BB0397D836A0EDC7D6F35E34068BDAA94AD4E1F
FILE: 03 - Mart Sine feat. Andrea Britton - Cast Away.flac
  Size: 41478952 Hash: 460874371F8C0FA1C711341A59E81326 Accuracy: -m0
  Conclusion: CDDA 100%
  Signature: AC0837794E4523EB709C5B2738E4A265D2507457
FILE: 02 - ReOrder & Sue McLaren - Hands of Time.flac
  Size: 38017641 Hash: 2D1BC7264115AE1907C5E6458AF0930A Accuracy: -m0
  Conclusion: CDDA 100%
  Signature: F035C84E98137E78FD99C88A0A24806B2DB6479B
FILE: 01 - Mike van Fabio & Alex van ReeVe feat. Geert Huinink & Kim Kiona - Hope (Intro Edit).flac
  Size: 37379297 Hash: 27261E85F722BB487F838C4F504410E1 Accuracy: -m0
  Conclusion: CDDA 100%
  Signature: 9E568DA7813C7187576F370D729F06839B8E77E7

Время раздачи: 24/7
[NNMClub.to]_VA - Uplifting Only Orchestral Trance Year Mix 2015 (Mixed by Ori Uplift) (2016) [FLAC-CD].torrent
 Торрент:   Зарегистрирован
 
Примагнититься
Free Leech
Зарегистрируйтесь и скачайте торрент!
21,3 KB
 Зарегистрирован:   08 Ноя 2016 12:36:48
 Размер:   948 MB  (
 Рейтинг:   4,5 (Голосов: 11)
 Поблагодарили:   52
 Проверка:   Оформление проверено модератором 08 Ноя 2016 13:14:43
Как cкачать  ·  Как раздать  ·  Правильно оформить  ·  Поднять ратио!  
Показать сообщения:   
Начать новую тему   Ответить на тему    Торрент-трекер NNM-Club -> Electronic -> Trance (Lossless) Часовой пояс: GMT + 3
Страница 1 из 1