Интеллигентный торрент-трекер
canvas not supported
Нас вместе: 4 108 627

День матери / Mothers and Daughters (2016) BDRip [H.264/720p] [EN]


 
 
RSS
Начать новую тему   Ответить на тему    Торрент-трекер NNM-Club -> Зарубежное кино -> Фильмы в оригинале (HD)
Автор Сообщение
smaster67 ®
Модератор Видео
Покровитель талантов Uploader 300+
Стаж: 7 лет 5 мес.
Сообщений: 6265
Ratio: 180,481
Поблагодарили: 174083
100%
День матери / Mothers and Daughters (2016) BDRip [H.264/720p] [EN]

Производство: США
Жанр: драма

Режиссер: Пол Даддридж , Найджел Леви
Актеры: Мира Сорвино, Кристина Риччи, Кортни Кокс, Элизабет Дэйли, Люк Митчелл, Шэрон Стоун, Сьюзен Сарандон, Сэльма Блэр, Ева Амурри, Пол Уэсли, Кристофер Бакус, Куинтон Аарон

Описание:
История описывает отношения десяти женщин со своими дочерьми накануне Дня матери.



Продолжительность: 01:32:02
Качество видео: BDRip 720p
Перевод: Отсутствует
Язык озвучки: Английский

Видео: AVC, 1280x720 (16:9), 5292 kbps, 23,976 fps, 0,239 bpp
Аудио: английский / DTS / 5.1 / 48 kHz / 1509 kbps / 24 bit
Код: выделить все
General
Unique ID                               Mothers and Daughters.2016.720p.mkv
Format                                   : Matroska
Format version                           : Version 4 / Version 2
File size                                : 4.37 GiB
Duration                                 : 1 h 32 min
Overall bit rate                         : 6 800 kb/s
Encoded date                             : UTC 2016-11-08 15:36:34
Writing application                      : mkvmerge v8.5.0 ('Vanishing Act') 64bit
Writing library                          : libebml v1.3.1 + libmatroska v1.4.2

Video
ID                                       : 1
Format                                   : AVC
Format/Info                              : Advanced Video Codec
Format profile                           : High@L4.1
Format settings, CABAC                   : Yes
Format settings, ReFrames                : 5 frames
Codec ID                                 : V_MPEG4/ISO/AVC
Duration                                 : 1 h 32 min
Bit rate                                 : 5 292 kb/s
Width                                    : 1 280 pixels
Height                                   : 720 pixels
Display aspect ratio                     : 16:9
Frame rate mode                          : Constant
Frame rate                               : 23.976 (24000/1001) FPS
Color space                              : YUV
Chroma subsampling                       : 4:2:0
Bit depth                                : 8 bits
Scan type                                : Progressive
Bits/(Pixel*Frame)                       : 0.239
Stream size                              : 3.40 GiB (78%)
Writing library                          : x264 core 148 r2705 3f5ed56
Encoding settings                        : cabac=1 / ref=5 / deblock=1:-1:-1 / analyse=0x3:0x133 / me=umh / subme=8 / psy=1 / psy_rd=1.00:0.15 / mixed_ref=1 / me_range=16 / chroma_me=1 / trellis=1 / 8x8dct=1 / cqm=0 / deadzone=21,11 / fast_pskip=0 / chroma_qp_offset=-4 / threads=22 / lookahead_threads=3 / sliced_threads=0 / nr=0 / decimate=1 / interlaced=0 / bluray_compat=0 / constrained_intra=0 / bframes=3 / b_pyramid=2 / b_adapt=2 / b_bias=0 / direct=3 / weightb=1 / open_gop=0 / weightp=2 / keyint=240 / keyint_min=23 / scenecut=40 / intra_refresh=0 / rc_lookahead=50 / rc=2pass / mbtree=1 / bitrate=5292 / ratetol=1.0 / qcomp=0.60 / qpmin=10 / qpmax=69 / qpstep=4 / cplxblur=20.0 / qblur=0.5 / ip_ratio=1.40 / aq=1:1.00
Language                                 : English
Default                                  : Yes
Forced                                   : No

Audio
ID                                       : 2
Format                                   : DTS
Format/Info                              : Digital Theater Systems
Mode                                     : 16
Format settings, Endianness              : Big
Codec ID                                 : A_DTS
Duration                                 : 1 h 31 min
Bit rate mode                            : Constant
Bit rate                                 : 1 509 kb/s
Channel(s)                               : 6 channels
Channel positions                        : Front: L C R, Side: L R, LFE
Sampling rate                            : 48.0 kHz
Frame rate                               : 93.750 FPS (512 spf)
Bit depth                                : 24 bits
Compression mode                         : Lossy
Stream size                              : 993 MiB (22%)
Language                                 : English
Default                                  : Yes
Forced                                   : No

Menu
00:00:00.000                             : en:00:00:00.000
00:11:01.911                             : en:00:11:01.911
00:18:34.155                             : en:00:18:34.155
00:27:53.130                             : en:00:27:53.130
00:38:41.653                             : en:00:38:41.653
00:47:58.250                             : en:00:47:58.250
00:55:47.970                             : en:00:55:47.970
01:02:16.066                             : en:01:02:16.066
01:09:20.948                             : en:01:09:20.948
01:14:59.537                             : en:01:14:59.537
01:23:58.242                             : en:01:23:58.242
01:27:15.605                             : en:01:27:15.605

Скриншоты:



Все одноименные релизы в Клубе

Время раздачи: с 13:00 до 23:00
[NNMClub.to]_Mothers and Daughters.2016.720p.mkv.torrent
 Торрент: Серебряная раздча  Зарегистрирован
 
Примагнититься
Free Leech
Зарегистрируйтесь и скачайте торрент!
22,1 KB
 Зарегистрирован:   08 Ноя 2016 23:32:31
 Размер:   4,37 GB  (
 Рейтинг:    (Голосов: 6)
 Поблагодарили:   32
 Проверка:   Оформление проверено модератором 08 Ноя 2016 23:33:24
Как cкачать  ·  Как раздать  ·  Правильно оформить  ·  Поднять ратио!  
Показать сообщения:   
Начать новую тему   Ответить на тему    Торрент-трекер NNM-Club -> Зарубежное кино -> Фильмы в оригинале (HD) Часовой пояс: GMT + 3
Страница 1 из 1