Интеллигентный торрент-трекер
canvas not supported
Нас вместе: 4 104 888

Совершенное оружие / The Perfect Weapon (2016) BDRip [H.264/720p] [EN]


 
 
RSS
Начать новую тему   Ответить на тему    Торрент-трекер NNM-Club -> Зарубежное кино -> Фильмы в оригинале (HD)
Автор Сообщение
smaster67 ®
Модератор Видео
Покровитель талантов Uploader 300+
Стаж: 7 лет 5 мес.
Сообщений: 6260
Ratio: 180,123
Поблагодарили: 173849
100%
Совершенное оружие / The Perfect Weapon (2016) BDRip [H.264/720p] [EN]

Производство: США, Швеция
Жанр: фантастика, боевик

Режиссер: Маттиас Пар
Актеры: Стивен Сигал, Кимберли Баттиста, Джонни Месснер, Саша Джексон, Ричард Тайсон, Вернон Уэллс, Сара Кейт Оллсап, Лэнс Э. Николс, Маттиас Пар, Маршал Хилтон, Филип Форнах

Описание:
В не слишком отдаленном будущем, тоталитарное государство с тайной правительственной организацией управляемая Директором контролирует любые аспекты жизни. Все «враги государства» находятся под особым контролем и большинство из них казнят оперативники тайной организации и профессиональные убийцы. Лучший оперативник с кодовым именем Кондор - элитный агент и наёмный убийца у правительства. Однако, в своем последнем задании он не убил лидера оппозиции и оказывается в бегах от государства на которое работает. В конечном итоге, это задействует цепочку событий с непредсказуемыми последствиями для всех участников. Может ли теперь Кондор выжить в охоте за ним всего могущественного государства и предательства так называемых союзников, ведь он и есть идеальное оружие.



Продолжительность: 01:23:33
Качество видео: BDRip 720p
Перевод: Отсутствует
Язык озвучки: Английский

Видео: AVC, 1280x536 (2.40:1), 5979 kbps, 25.000 fps, 0,349 bpp
Аудио: английский / DTS / 5.1 / 48 kHz / 1509 kbps / 24 bit
Код: выделить все
General
Unique ID                               The.Perfect.Weapon.2016.720p.mkv
Format                                   : Matroska
Format version                           : Version 2
File size                                : 4.37 GiB
Duration                                 : 1 h 23 min
Overall bit rate                         : 7 487 kb/s
Encoded date                             : UTC 2016-11-08 05:34:33
Writing application                      : mkvmerge v9.5.0 ('Quiet Fire') 32bit
Writing library                          : libebml v1.3.4 + libmatroska v1.4.5

Video
ID                                       : 1
Format                                   : AVC
Format/Info                              : Advanced Video Codec
Format profile                           : High@L4.1
Format settings, CABAC                   : Yes
Format settings, ReFrames                : 5 frames
Codec ID                                 : V_MPEG4/ISO/AVC
Duration                                 : 1 h 23 min
Bit rate                                 : 5 979 kb/s
Width                                    : 1 280 pixels
Height                                   : 536 pixels
Display aspect ratio                     : 2.40:1
Frame rate mode                          : Constant
Frame rate                               : 25.000 FPS
Color space                              : YUV
Chroma subsampling                       : 4:2:0
Bit depth                                : 8 bits
Scan type                                : Progressive
Bits/(Pixel*Frame)                       : 0.349
Stream size                              : 3.49 GiB (80%)
Writing library                          : x264 core 148 r2705 3f5ed56
Encoding settings                        : cabac=1 / ref=5 / deblock=1:-3:-3 / analyse=0x3:0x113 / me=umh / subme=8 / psy=1 / psy_rd=1.00:0.00 / mixed_ref=1 / me_range=16 / chroma_me=1 / trellis=1 / 8x8dct=1 / cqm=0 / deadzone=21,11 / fast_pskip=1 / chroma_qp_offset=-2 / threads=6 / lookahead_threads=1 / sliced_threads=0 / nr=0 / decimate=1 / interlaced=0 / bluray_compat=0 / constrained_intra=0 / bframes=3 / b_pyramid=2 / b_adapt=2 / b_bias=0 / direct=3 / weightb=1 / open_gop=0 / weightp=2 / keyint=240 / keyint_min=24 / scenecut=40 / intra_refresh=0 / rc_lookahead=50 / rc=2pass / mbtree=1 / bitrate=5979 / ratetol=1.0 / qcomp=0.60 / qpmin=0 / qpmax=69 / qpstep=4 / cplxblur=20.0 / qblur=0.5 / vbv_maxrate=62500 / vbv_bufsize=78125 / nal_hrd=none / filler=0 / ip_ratio=1.40 / aq=1:1.00
Language                                 : English
Default                                  : Yes
Forced                                   : No

Audio
ID                                       : 2
Format                                   : DTS
Format/Info                              : Digital Theater Systems
Mode                                     : 16
Format settings, Endianness              : Big
Codec ID                                 : A_DTS
Duration                                 : 1 h 23 min
Bit rate mode                            : Constant
Bit rate                                 : 1 509 kb/s
Channel(s)                               : 6 channels
Channel positions                        : Front: L C R, Side: L R, LFE
Sampling rate                            : 48.0 kHz
Frame rate                               : 93.750 FPS (512 spf)
Bit depth                                : 24 bits
Compression mode                         : Lossy
Stream size                              : 902 MiB (20%)
Language                                 : English
Default                                  : Yes
Forced                                   : No

Menu
00:00:00.000                             : en:00:00:00.000
00:06:19.160                             : en:00:06:19.160
00:14:25.960                             : en:00:14:25.960
00:20:58.320                             : en:00:20:58.320
00:26:15.720                             : en:00:26:15.720
00:34:07.120                             : en:00:34:07.120
00:40:02.800                             : en:00:40:02.800
00:45:45.280                             : en:00:45:45.280
00:53:52.520                             : en:00:53:52.520
01:00:06.200                             : en:01:00:06.200
01:09:11.080                             : en:01:09:11.080
01:15:48.160                             : en:01:15:48.160

Скриншоты:



Все одноименные релизы в Клубе

Время раздачи: с 13:00 до 23:00
[NNMClub.to]_The.Perfect.Weapon.2016.720p.mkv.torrent
 Торрент: Серебряная раздча  Зарегистрирован
 
Примагнититься
Free Leech
Зарегистрируйтесь и скачайте торрент!
22 KB
 Зарегистрирован:   09 Ноя 2016 09:02:40
 Размер:   4,37 GB  (
 Рейтинг:   2,9 (Голосов: 27)
 Поблагодарили:   68
 Проверка:   Оформление проверено модератором 09 Ноя 2016 09:04:11
Как cкачать  ·  Как раздать  ·  Правильно оформить  ·  Поднять ратио!  
mpyth
Стаж: 3 года 7 мес.
Сообщений: 17
Ratio: 1,035
32.21%
Цитата:
В не слишком отдаленном будущем, тоталитарное государство с тайной правительственной организацией управляемая Директором контролирует любые аспекты жизни. Все «враги государства» находятся под особым контролем

вот сволоч! Только получил рассеянский паспорт, а уже поливает грязью страну, его приютившую! :D
vladi​mirpu​xylo​
Стаж: 4 мес. 27 дней
Сообщений: 1
Ratio: 32,258
0%
ukraine.gif
На кой чёрт эта англоязычная раздача нужна русскоязычному населению? Можно подумать, что сам автор раздачи smaster67 ® хоть что-то понимает по английски?
ya-inside
Стаж: 5 лет 3 мес.
Сообщений: 170
Ratio: 7,477
53.72%
mozambique.gif
Кто-то учит разговорный английский, кому то не нужен топорный или слишком литературный перевод, поэтому не бухти, хавай что дают
CrashMaker
Стаж: 5 лет 7 мес.
Сообщений: 429
Ratio: 18,279
Раздал: 22,37 TB
100%
Откуда: рожденный в СССР
ussr.gif
mpyth писал(а): Перейти к сообщению
Цитата:
В не слишком отдаленном будущем, тоталитарное государство с тайной правительственной организацией управляемая Директором контролирует любые аспекты жизни. Все «враги государства» находятся под особым контролем

вот сволоч! Только получил рассеянский паспорт, а уже поливает грязью страну, его приютившую! :D
как ты быстро все угадываешь :) а лучше так - я знаю что ты знаешь что я знаю, да? и язык в эту... в опу, да? Рабы божьи (далее подставляйте по ситуации). Увы мне... Тальков еще пел - и свободных славян обратили рабами и в тюрьму превратили Великую Русь...

_________________
„Народ, не имеющий национального самосознания — есть навоз, на котором произрастают другие народы.“
П.А. Столыпин.
Государство-агрессор - это государство, напавшее на другое государство без объявления войны раньше США.
kiska​-saku​ya​
Стаж: 2 года 11 мес.
Сообщений: 429
Ratio: 12,878
Раздал: 2,306 TB
56.83%
Боже, какой сигал страшный стал....
VENik39rus
 
Стаж: 6 лет 9 мес.
Сообщений: 254
Ratio: 1,731
99.42%
Откуда: из прошлого тысяч​елети​я,​
ussr.gif
БЛА БЛА БЛА, (сорян за капс) вам не по... как он выглядит, доживите до его годов да посмотрим на вас, красавцев. Кино то как, рейтенга чёт нету, нЕпонятно.

_________________
Не надо относиться к жизни слишком серьёзно, ещё никому не удавалось выйти из неё живым.
ruslanrus
Стаж: 7 лет 7 мес.
Сообщений: 32
Ratio: 34,062
10.99%
russia.gif
По поводу озвучки согласен.
Хотите учить английский, переключите дорожку и наслаждайтесь.
enemy_unit
Стаж: 4 года 7 мес.
Сообщений: 27
Ratio: 18,072
100%
Откуда: Calgary
canada.gif
vladimirpuxylo писал(а): Перейти к сообщению
На кой чёрт эта англоязычная раздача нужна русскоязычному населению? Можно подумать, что сам автор раздачи smaster67 ® хоть что-то понимает по английски?


Вообще-то тут люди не только из России и СНГ. А качество релизов здесь не хуже, а порой и лучше, чем на англоязычных ресурсах.
nesteroid
Uploader 100+
Стаж: 6 лет 6 мес.
Сообщений: 2279
Ratio: 308,188
Поблагодарили: 62
100%
Откуда: Zaporozhye
ukraine.gif
Сигал реально могет. И неипет. :стеб:

_________________
Intel Core i5-3550 3.3GHz | Asus P8P67Deluxe | Corsair Vengeance Pro 24GB DDR3-1600
Asus GTX970 OC 4GB | Creative SB X-Fi Titanium Fatality | 1xSSD (480GB) 7xHDD (17TB)
Logitech G510s + Bloody ZL5 | Samsung SyncMaster P2350 + P2370
Windows 7 Ultimate x64
Показать сообщения:   
Начать новую тему   Ответить на тему    Торрент-трекер NNM-Club -> Зарубежное кино -> Фильмы в оригинале (HD) Часовой пояс: GMT + 3
Страница 1 из 1