Интеллигентный торрент-трекер
canvas not supported
Нас вместе: 4 110 553

День матери / Mothers and Daughters (2016) BDRip [H.264/1080p] [EN]


 
 
RSS
Начать новую тему   Ответить на тему    Торрент-трекер NNM-Club -> Зарубежное кино -> Фильмы в оригинале (HD)
Автор Сообщение
smaster67 ®
Модератор Видео
Покровитель талантов Uploader 300+
Стаж: 7 лет 5 мес.
Сообщений: 6270
Ratio: 180,633
Поблагодарили: 174236
100%
День матери / Mothers and Daughters (2016) BDRip [H.264/1080p] [EN]

Производство: США
Жанр: драма

Режиссер: Пол Даддридж , Найджел Леви
Актеры: Мира Сорвино, Кристина Риччи, Кортни Кокс, Элизабет Дэйли, Люк Митчелл, Шэрон Стоун, Сьюзен Сарандон, Сэльма Блэр, Ева Амурри, Пол Уэсли, Кристофер Бакус, Куинтон Аарон

Описание:
История описывает отношения десяти женщин со своими дочерьми накануне Дня матери.



Продолжительность: 01:32:02
Качество видео: BDRip 1080p
Перевод: Отсутствует
Язык озвучки: Английский

Видео: AVC, 1920x1080 (16:9), 8686 kbps, 23,976 fps, 0,175 bpp
Аудио: английский / DTS / 5.1 / 48 kHz / 1509 kbps / 24 bit
Код: выделить все
General
Unique ID                               Mothers and Daughters.2016.1080p.mkv
Format                                   : Matroska
Format version                           : Version 4 / Version 2
File size                                : 6.55 GiB
Duration                                 : 1 h 32 min
Overall bit rate                         : 10.2 Mb/s
Encoded date                             : UTC 2016-11-09 09:52:25
Writing application                      : mkvmerge v8.3.0 ('Over the Horizon') 64bit
Writing library                          : libebml v1.3.1 + libmatroska v1.4.2

Video
ID                                       : 1
Format                                   : AVC
Format/Info                              : Advanced Video Codec
Format profile                           : High@L4.1
Format settings, CABAC                   : Yes
Format settings, ReFrames                : 4 frames
Codec ID                                 : V_MPEG4/ISO/AVC
Duration                                 : 1 h 32 min
Bit rate                                 : 8 686 kb/s
Width                                    : 1 920 pixels
Height                                   : 1 080 pixels
Display aspect ratio                     : 16:9
Original display aspect ratio            : 1.000
Frame rate mode                          : Constant
Frame rate                               : 23.976 (24000/1001) FPS
Color space                              : YUV
Chroma subsampling                       : 4:2:0
Bit depth                                : 8 bits
Scan type                                : Progressive
Bits/(Pixel*Frame)                       : 0.175
Stream size                              : 5.45 GiB (83%)
Writing library                          : x264 core 148 r2721 72d53ab
Encoding settings                        : cabac=1 / ref=4 / deblock=1:1:1 / analyse=0x3:0x133 / me=umh / subme=8 / psy=1 / psy_rd=1.00:0.00 / mixed_ref=1 / me_range=16 / chroma_me=1 / trellis=1 / 8x8dct=1 / cqm=0 / deadzone=21,11 / fast_pskip=0 / chroma_qp_offset=-2 / threads=18 / lookahead_threads=3 / sliced_threads=0 / nr=0 / decimate=1 / interlaced=0 / bluray_compat=0 / constrained_intra=0 / bframes=3 / b_pyramid=2 / b_adapt=1 / b_bias=0 / direct=3 / weightb=1 / open_gop=0 / weightp=2 / keyint=240 / keyint_min=23 / scenecut=40 / intra_refresh=0 / rc_lookahead=50 / rc=2pass / mbtree=1 / bitrate=8686 / ratetol=1.0 / qcomp=0.60 / qpmin=0 / qpmax=69 / qpstep=4 / cplxblur=20.0 / qblur=0.5 / ip_ratio=1.40 / aq=1:1.00
Language                                 : English
Default                                  : Yes
Forced                                   : No

Audio
ID                                       : 2
Format                                   : DTS
Format/Info                              : Digital Theater Systems
Mode                                     : 16
Format settings, Endianness              : Big
Codec ID                                 : A_DTS
Duration                                 : 1 h 32 min
Bit rate mode                            : Constant
Bit rate                                 : 1 509 kb/s
Channel(s)                               : 6 channels
Channel positions                        : Front: L C R, Side: L R, LFE
Sampling rate                            : 48.0 kHz
Frame rate                               : 93.750 FPS (512 spf)
Bit depth                                : 24 bits
Compression mode                         : Lossy
Stream size                              : 993 MiB (15%)
Language                                 : English
Default                                  : Yes
Forced                                   : No

Menu
00:00:00.000                             : en:00:00:00.000
00:11:01.911                             : en:00:11:01.911
00:18:34.155                             : en:00:18:34.155
00:27:53.130                             : en:00:27:53.130
00:38:41.653                             : en:00:38:41.653
00:47:58.250                             : en:00:47:58.250
00:55:47.970                             : en:00:55:47.970
01:02:16.066                             : en:01:02:16.066
01:09:20.948                             : en:01:09:20.948
01:14:59.537                             : en:01:14:59.537
01:23:58.242                             : en:01:23:58.242
01:27:15.605                             : en:01:27:15.605

Скриншоты:



Все одноименные релизы в Клубе

Время раздачи: с 13:00 до 23:00
[NNMClub.to]_Mothers and Daughters.2016.1080p.mkv.torrent
 Торрент: Золотая раздача  Зарегистрирован
 
Примагнититься
Free Leech
Зарегистрируйтесь и скачайте торрент!
33 KB
 Зарегистрирован:   09 Ноя 2016 19:55:48
 Размер:   6,55 GB  (
 Рейтинг:    (Голосов: 5)
 Поблагодарили:   33
 Проверка:   Оформление проверено модератором 09 Ноя 2016 19:58:32
Как cкачать  ·  Как раздать  ·  Правильно оформить  ·  Поднять ратио!  
vovan​ov-ar​s​
Стаж: 2 года 10 мес.
Сообщений: 14
Ratio: 25,156
94.2%
russia.gif
Вообще не понятен смысл фильма
nesteroid
Uploader 100+
Стаж: 6 лет 6 мес.
Сообщений: 2279
Ratio: 309,045
Поблагодарили: 62
100%
Откуда: Zaporozhye
ukraine.gif
Хотел пофапать на Миру, а она так постарела... :шок:
Эх :(

_________________
Intel Core i5-3550 3.3GHz | Asus P8P67Deluxe | Corsair Vengeance Pro 24GB DDR3-1600
Asus GTX970 OC 4GB | Creative SB X-Fi Titanium Fatality | 1xSSD (480GB) 7xHDD (17TB)
Logitech G510s + Bloody ZL5 | Samsung SyncMaster P2350 + P2370
Windows 7 Ultimate x64
Показать сообщения:   
Начать новую тему   Ответить на тему    Торрент-трекер NNM-Club -> Зарубежное кино -> Фильмы в оригинале (HD) Часовой пояс: GMT + 3
Страница 1 из 1