Интеллигентный торрент-трекер
canvas not supported
Нас вместе: 4 116 185

Деньги / Money (2016) BDRip [H.264/1080p] [EN / EN Sub]


 
 
RSS
Начать новую тему   Ответить на тему    Торрент-трекер NNM-Club -> Зарубежное кино -> Фильмы в оригинале (HD)
Автор Сообщение
smaster67 ®
Модератор Видео
Покровитель талантов Uploader 300+
Стаж: 7 лет 5 мес.
Сообщений: 6278
Ratio: 181,074
Поблагодарили: 174749
100%
Деньги / Money (2016) BDRip [H.264/1080p] [EN / EN Sub]

Производство: США, Испания
Жанр: триллер, криминал

Режиссер: Мартин Росете
Актеры: Джесси Уильямс, Келлан Латс, Джейми Бамбер, Джесс Вейкслер, Фредрик Лене, Джо Ланза, Лусия Герерро, Дения Браче, Крис Лэнг, Илья Константин, Нанда Абелла

Описание:
Два богатых бизнесмена собираются уйти с добытыми нечестным путем 5 миллионами, но их планы нарушает незваный гость...



Продолжительность: 01:24:29
Качество видео: BDRip 1080p
Перевод: Отсутствует
Язык озвучки: Английский
Язык субтитров: Английский
Вид субтитров: Вшитые (форсированные)

Видео: AVC, 1920x856 (2.25:1), 9592 kbps, 23,976 fps, 0,243 bpp
Аудио: Английский / DTS / 5.1 / 48 kHz / 1509 kbps / 24 bit
Код: выделить все
General
Unique ID
Complete name                           Money-1080p.mkv
Format                                   : Matroska
Format version                           : Version 4 / Version 2
File size                                : 6.55 GiB
Duration                                 : 1 h 24 min
Overall bit rate                         : 11.1 Mb/s
Encoded date                             : UTC 2016-11-09 10:52:38
Writing application                      : mkvmerge v9.5.0 ('Quiet Fire') 64bit
Writing library                          : libebml v1.3.4 + libmatroska v1.4.5

Video
ID                                       : 1
Format                                   : AVC
Format/Info                              : Advanced Video Codec
Format profile                           : High@L4.1
Format settings, CABAC                   : Yes
Format settings, ReFrames                : 5 frames
Codec ID                                 : V_MPEG4/ISO/AVC
Duration                                 : 1 h 24 min
Bit rate                                 : 9 592 kb/s
Width                                    : 1 920 pixels
Height                                   : 856 pixels
Display aspect ratio                     : 2.25:1
Frame rate mode                          : Constant
Frame rate                               : 23.976 (24000/1001) FPS
Color space                              : YUV
Chroma subsampling                       : 4:2:0
Bit depth                                : 8 bits
Scan type                                : Progressive
Bits/(Pixel*Frame)                       : 0.243
Stream size                              : 5.66 GiB (86%)
Writing library                          : x264 core 148 r2705 3f5ed56
Encoding settings                        : cabac=1 / ref=5 / deblock=1:0:0 / analyse=0x3:0x113 / me=umh / subme=8 / psy=1 / psy_rd=1.00:0.00 / mixed_ref=1 / me_range=16 / chroma_me=1 / trellis=1 / 8x8dct=1 / cqm=0 / deadzone=21,11 / fast_pskip=0 / chroma_qp_offset=-2 / threads=12 / lookahead_threads=2 / sliced_threads=0 / nr=0 / decimate=1 / interlaced=0 / bluray_compat=0 / constrained_intra=0 / bframes=3 / b_pyramid=2 / b_adapt=2 / b_bias=0 / direct=3 / weightb=1 / open_gop=0 / weightp=2 / keyint=250 / keyint_min=23 / scenecut=40 / intra_refresh=0 / rc_lookahead=50 / rc=2pass / mbtree=1 / bitrate=9592 / ratetol=1.0 / qcomp=0.60 / qpmin=0 / qpmax=69 / qpstep=4 / cplxblur=20.0 / qblur=0.5 / ip_ratio=1.40 / aq=1:1.00
Language                                 : English
Default                                  : Yes
Forced                                   : No

Audio
ID                                       : 2
Format                                   : DTS
Format/Info                              : Digital Theater Systems
Mode                                     : 16
Format settings, Endianness              : Big
Codec ID                                 : A_DTS
Duration                                 : 1 h 24 min
Bit rate mode                            : Constant
Bit rate                                 : 1 509 kb/s
Channel(s)                               : 6 channels
Channel positions                        : Front: L C R, Side: L R, LFE
Sampling rate                            : 48.0 kHz
Frame rate                               : 93.750 FPS (512 spf)
Bit depth                                : 24 bits
Compression mode                         : Lossy
Stream size                              : 912 MiB (14%)
Language                                 : German
Default                                  : Yes
Forced                                   : No

Text
ID                                       : 3
Format                                   : UTF-8
Codec ID                                 : S_TEXT/UTF8
Codec ID/Info                            : UTF-8 Plain Text
Duration                                 : 3 s 962 ms
Bit rate                                 : 137 b/s
Count of elements                        : 1
Stream size                              : 68.0 Bytes (0%)
Language                                 : German
Default                                  : Yes
Forced                                   : Yes

Скриншоты:



Все одноименные релизы в Клубе

Время раздачи: с 13:00 до 23:00
[NNMClub.to]_Money-1080p.mkv.torrent
 Торрент: Золотая раздача  Зарегистрирован
 
Примагнититься

Зарегистрируйтесь и скачайте торрент!
32,9 KB
 Зарегистрирован:   10 Ноя 2016 00:37:48
 Размер:   6,55 GB  (
 Рейтинг:    (Голосов: 3)
 Поблагодарили:   28
 Проверка:   Оформление проверено модератором 10 Ноя 2016 00:38:33
Как cкачать  ·  Как раздать  ·  Правильно оформить  ·  Поднять ратио!  
Показать сообщения:   
Начать новую тему   Ответить на тему    Торрент-трекер NNM-Club -> Зарубежное кино -> Фильмы в оригинале (HD) Часовой пояс: GMT + 3
Страница 1 из 1