Интеллигентный торрент-трекер
canvas not supported
Нас вместе: 4 115 764

Атака зомби в кожаных штанах / Attack of the Lederhosenzombies / Attack of the Lederhosen Zombies (2016) BDRip [H.264/1080p] [EN]


 
 
RSS
Начать новую тему   Ответить на тему    Торрент-трекер NNM-Club -> Зарубежное кино -> Фильмы в оригинале (HD)
Автор Сообщение
smaster67 ®
Модератор Видео
Покровитель талантов Uploader 300+
Стаж: 7 лет 5 мес.
Сообщений: 6277
Ratio: 181,038
Поблагодарили: 174711
100%
Атака зомби в кожаных штанах / Attack of the Lederhosenzombies / Attack of the Lederhosen Zombies (2016) BDRip [H.264/1080p] [EN]
Производство: Австрия
Жанр: ужасы, комедия

Режиссер: Доминик Хартл
Актеры: Габриэла Марчинкова, Лори Кэлверт, Маргарете Тизель, Карл Фишер, Патриция Аулицки, Оскар Дюэкьер Гис

Описание:
Действие фильма развивается в Альпах. Группа молодых сноубордистов застряла на отдаленном горнолыжном курорте. Решив устроить вечеринку, они и не подозревали, что она превратится в адский кошмар...



Продолжительность: 01:17:18
Качество видео: BDRip 1080p
Перевод: Отсутствует
Язык озвучки: Английский

Видео: AVC, 1920x808 (2.40:1), 9479 kbps, 24 fps, 0,255 bpp
Аудио: английский / AC3 / 5.1 / 48 kHz / 640 kbps /
Код: выделить все
General
Unique ID                       attack.of.the.lederhosen.zombies.2016.1080p.mkv
Format                                   : Matroska
Format version                           : Version 4 / Version 2
File size                                : 5.46 GiB
Duration                                 : 1 h 17 min
Overall bit rate                         : 10.1 Mb/s
Encoded date                             : UTC 2016-11-09 21:38:36
Writing application                      : mkvmerge v8.3.0 ('Over the Horizon') 64bit
Writing library                          : libebml v1.3.1 + libmatroska v1.4.2

Video
ID                                       : 1
Format                                   : AVC
Format/Info                              : Advanced Video Codec
Format profile                           : High@L4.1
Format settings, CABAC                   : Yes
Format settings, ReFrames                : 5 frames
Codec ID                                 : V_MPEG4/ISO/AVC
Duration                                 : 1 h 17 min
Bit rate                                 : 9 479 kb/s
Width                                    : 1 920 pixels
Height                                   : 808 pixels
Display aspect ratio                     : 2.40:1
Frame rate mode                          : Constant
Frame rate                               : 24.000 FPS
Color space                              : YUV
Chroma subsampling                       : 4:2:0
Bit depth                                : 8 bits
Scan type                                : Progressive
Bits/(Pixel*Frame)                       : 0.255
Stream size                              : 5.11 GiB (94%)
Writing library                          : x264 core 148 r2705 3f5ed56
Encoding settings                        : cabac=1 / ref=5 / deblock=1:0:0 / analyse=0x3:0x133 / me=umh / subme=9 / psy=1 / psy_rd=1.00:0.00 / mixed_ref=1 / me_range=16 / chroma_me=1 / trellis=1 / 8x8dct=1 / cqm=0 / deadzone=21,11 / fast_pskip=0 / chroma_qp_offset=-2 / threads=18 / lookahead_threads=1 / sliced_threads=0 / nr=0 / decimate=1 / interlaced=0 / bluray_compat=0 / constrained_intra=0 / bframes=3 / b_pyramid=2 / b_adapt=2 / b_bias=0 / direct=3 / weightb=1 / open_gop=0 / weightp=2 / keyint=250 / keyint_min=24 / scenecut=40 / intra_refresh=0 / rc_lookahead=50 / rc=2pass / mbtree=1 / bitrate=9479 / ratetol=1.0 / qcomp=0.60 / qpmin=0 / qpmax=69 / qpstep=4 / cplxblur=20.0 / qblur=0.5 / ip_ratio=1.40 / aq=1:1.00
Language                                 : English
Default                                  : Yes
Forced                                   : No

Audio
ID                                       : 2
Format                                   : AC-3
Format/Info                              : Audio Coding 3
Mode extension                           : CM (complete main)
Format settings, Endianness              : Big
Codec ID                                 : A_AC3
Duration                                 : 1 h 17 min
Bit rate mode                            : Constant
Bit rate                                 : 640 kb/s
Channel(s)                               : 6 channels
Channel positions                        : Front: L C R, Side: L R, LFE
Sampling rate                            : 48.0 kHz
Frame rate                               : 31.250 FPS (1536 spf)
Compression mode                         : Lossy
Stream size                              : 354 MiB (6%)
Language                                 : English
Default                                  : Yes
Forced                                   : No

Menu
00:00:00.000                             : en:00:00:00.000
00:05:12.083                             : en:00:05:12.083
00:12:25.417                             : en:00:12:25.417
00:19:31.000                             : en:00:19:31.000
00:29:58.125                             : en:00:29:58.125
00:37:12.125                             : en:00:37:12.125
00:46:45.708                             : en:00:46:45.708
00:55:45.625                             : en:00:55:45.625
01:11:09.667                             : en:01:11:09.667

Скриншоты:



Все одноименные релизы в Клубе

Время раздачи: с 13:00 до 23:00
[NNMClub.to]_attack.of.the.lederhosen.zombies.2016.1080p.mkv.torrent
 Торрент: Золотая раздача  Зарегистрирован
 
Примагнититься
Free Leech
Зарегистрируйтесь и скачайте торрент!
27,5 KB
 Зарегистрирован:   10 Ноя 2016 20:46:06
 Размер:   5,46 GB  (
 Рейтинг:    (Голосов: 8)
 Поблагодарили:   46
 Проверка:   Оформление проверено модератором 10 Ноя 2016 20:47:10
Как cкачать  ·  Как раздать  ·  Правильно оформить  ·  Поднять ратио!  
PANQUEMAO

Online
Стаж: 8 лет 2 мес.
Сообщений: 11
Ratio: 289,196
100%
spain.gif
Спасибо !!! :выпивают:

Тем не менеe...

[img]https://postimg.org/image/59rsy3hwl/[/img]
Показать сообщения:   
Начать новую тему   Ответить на тему    Торрент-трекер NNM-Club -> Зарубежное кино -> Фильмы в оригинале (HD) Часовой пояс: GMT + 3
Страница 1 из 1