Интеллигентный торрент-трекер
canvas not supported
Нас вместе: 4 105 332

Деньги / Money (2016) BDRemux [H.264/1080p] [EN / EN Sub]


 
 
RSS
Начать новую тему   Ответить на тему    Торрент-трекер NNM-Club -> Зарубежное кино -> Фильмы в оригинале (HD)
Автор Сообщение
smaster67 ®
Модератор Видео
Покровитель талантов Uploader 300+
Стаж: 7 лет 5 мес.
Сообщений: 6261
Ratio: 180,138
Поблагодарили: 173871
100%
Деньги / Money (2016) BDRemux [H.264/1080p] [EN / EN Sub]

Производство: США, Испания
Жанр: триллер, криминал

Режиссер: Мартин Росете
Актеры: Джесси Уильямс, Келлан Латс, Джейми Бамбер, Джесс Вейкслер, Фредрик Лене, Джо Ланза, Лусия Герерро, Дения Браче, Крис Лэнг, Илья Константин, Нанда Абелла

Описание:
Два богатых бизнесмена собираются уйти с добытыми нечестным путем 5 миллионами, но их планы нарушает незваный гость...



Продолжительность: 01:24:29
Качество видео: BDRemux
Перевод: Отсутствует
Язык озвучки: Английский
Язык субтитров: английский
Вид субтитров: Вшитые (форсированные)

Видео: AVC, 1920x1080 (16:9), 20997 kbps, 23,976 fps, 0,422 bpp
Аудио: английский / DTS-HD / 5.1 / 48 kHz / 3565 kbps / 24 bit (Core: 5.1 / 48 kHz / 1509 kbps / 24 bit)
Код: выделить все
General
Unique ID                          Money.2016.REMUX.1080p.BluRay.AVC.DTS-HD.MA5.1-iFT\Money.2016.REMUX.1080p.BluRay.AVC.DTS-HD.MA5.1-iFT.mkv
Format                                   : Matroska
Format version                           : Version 4 / Version 2
File size                                : 14.5 GiB
Duration                                 : 1 h 24 min
Overall bit rate mode                    : Variable
Overall bit rate                         : 24.6 Mb/s
Encoded date                             : UTC 2016-11-10 18:43:35
Writing application                      : mkvmerge v8.9.0 ('Father Daughter') 64bit
Writing library                          : libebml v1.3.3 + libmatroska v1.4.4

Video
ID                                       : 1
Format                                   : AVC
Format/Info                              : Advanced Video Codec
Format profile                           : High@L4.1
Format settings, CABAC                   : Yes
Format settings, ReFrames                : 4 frames
Format settings, GOP                     : M=3, N=24
Codec ID                                 : V_MPEG4/ISO/AVC
Duration                                 : 1 h 24 min
Bit rate mode                            : Variable
Bit rate                                 : 21.0 Mb/s
Maximum bit rate                         : 35.0 Mb/s
Width                                    : 1 920 pixels
Height                                   : 1 080 pixels
Display aspect ratio                     : 16:9
Frame rate mode                          : Constant
Frame rate                               : 23.976 (24000/1001) FPS
Standard                                 : NTSC
Color space                              : YUV
Chroma subsampling                       : 4:2:0
Bit depth                                : 8 bits
Scan type                                : Progressive
Bits/(Pixel*Frame)                       : 0.422
Stream size                              : 12.4 GiB (85%)
Title                                    : English
Language                                 : English
Default                                  : Yes
Forced                                   : No
Color range                              : Limited
Color primaries                          : BT.709
Transfer characteristics                 : BT.709
Matrix coefficients                      : BT.709

Audio
ID                                       : 2
Format                                   : DTS
Format/Info                              : Digital Theater Systems
Format profile                           : MA / Core
Mode                                     : 16
Format settings, Endianness              : Big
Codec ID                                 : A_DTS
Duration                                 : 1 h 24 min
Bit rate mode                            : Variable / Constant
Bit rate                                 : 3 566 kb/s / 1 509 kb/s
Channel(s)                               : 6 channels
Channel positions                        : Front: L C R, Side: L R, LFE
Sampling rate                            : 48.0 kHz
Frame rate                               : 93.750 FPS (512 spf)
Bit depth                                : 24 bits
Compression mode                         : Lossless / Lossy
Stream size                              : 2.10 GiB (15%)
Title                                    : English
Language                                 : English
Default                                  : Yes
Forced                                   : No

Text
ID                                       : 3
Format                                   : PGS
Muxing mode                              : zlib
Codec ID                                 : S_HDMV/PGS
Codec ID/Info                            : Picture based subtitle format used on BDs/HD-DVDs
Duration                                 : 3 s 962 ms
Bit rate                                 : 44.8 kb/s
Count of elements                        : 2
Stream size                              : 21.7 KiB (0%)
Title                                    : English-Forced
Language                                 : English
Default                                  : Yes
Forced                                   : No

Menu
00:00:00.000                             : en:Chapter 01
00:06:38.356                             : en:Chapter 02
00:12:53.397                             : en:Chapter 03
00:17:59.953                             : en:Chapter 04
00:29:13.543                             : en:Chapter 05
00:33:00.728                             : en:Chapter 06
00:42:56.532                             : en:Chapter 07
00:55:03.258                             : en:Chapter 08
01:02:58.733                             : en:Chapter 09
01:09:02.096                             : en:Chapter 10
01:16:06.979                             : en:Chapter 11
01:22:59.808                             : en:Chapter 12

Скриншоты:



Все одноименные релизы в Клубе

Время раздачи: с 13:00 до 23:00
[NNMClub.to]_Money.2016.REMUX.1080p.BluRay.AVC.DTS-HD.MA5.1-iFT.mkv.torrent
 Торрент: Золотая раздача  Зарегистрирован
 
Примагнититься
Free Leech
Зарегистрируйтесь и скачайте торрент!
72,7 KB
 Зарегистрирован:   11 Ноя 2016 00:17:55
 Размер:   14,5 GB  (
 Рейтинг:    (Голосов: 3)
 Поблагодарили:   27
 Проверка:   Оформление проверено модератором 11 Ноя 2016 00:18:56
Как cкачать  ·  Как раздать  ·  Правильно оформить  ·  Поднять ратио!  
jadeskull
Стаж: 2 года 1 мес.
Сообщений: 157
Ratio: 2,57
1.69%
Someone here wrote a 10/10 review and I can only think it was the writers or directors family member. This movie tries so hard to keep you guessing that at the end it becomes very plain(like the pastel filter used in this movie.,I am sure the budget of this movie was very low(too much if you ask me)as its filmed in just a few locations.You might think its simplicity would reflect a much thought out script but it fails to transfer any emotions. Maybe I am not hipster or young enough but this movie I will recommend to wait until it comes in DVD,throw the CD out and use the case to balance your table,that is all its good for.

суровая оценка)))
воздержался отскачивания
CURAZH
Стаж: 4 года 3 мес.
Сообщений: 151
Ratio: 71,329
100%
Откуда: Север Столицы
russia.gif
Проходите мимо !:нет:

_________________
Если ты не решишься на это сегодня,завтра будет таким же,как вчера!
Показать сообщения:   
Начать новую тему   Ответить на тему    Торрент-трекер NNM-Club -> Зарубежное кино -> Фильмы в оригинале (HD) Часовой пояс: GMT + 3
Страница 1 из 1