Интеллигентный торрент-трекер
canvas not supported
Нас вместе: 4 106 028

Парни со стволами / War Dogs (2016) BDRemux [H.264/1080p] [EN / EN, Fr, Sp, Po Sub]


 
 
RSS
Начать новую тему   Ответить на тему    Торрент-трекер NNM-Club -> Зарубежное кино -> Фильмы в оригинале (HD)
Автор Сообщение
smaster67 ®
Модератор Видео
Покровитель талантов Uploader 300+
Стаж: 7 лет 5 мес.
Сообщений: 6265
Ratio: 180,257
Поблагодарили: 173983
100%
Парни со стволами / War Dogs (2016) BDRemux [H.264/1080p] [EN / EN, Fr, Sp, Po Sub]

Производство: США
Жанр: драма, комедия, криминал, военный

Режиссер: Тодд Филлипс
Актеры: Майлз Теллер, Джона Хилл, Ана де Армас, Кевин Поллак, Брэдли Купер, Джейби Бланк, Шон Тоуб, Патрик Ст. Эсприт, Андрей Финти, Эдди Джемисон, Стив Лэнц, Грегг Уэйнер

Описание:
Реальная история о приятелях-планокурах из Майами, умудрившихся выбить в Пентагоне контракт на 300 миллионов долларов на поставку оружия.



Продолжительность: 01:54:12
Качество видео: BDRemux
Перевод: Отсутствует
Язык озвучки: Английский
Язык субтитров: английский, французский, португальский, испанский
Вид субтитров: Вшитые

Видео: AVC, 1920x1080 (16:9), 29368 kbps, 23,976 fps, 0,591 bpp
Аудио: английский / DTS-HD / 5.1 / 48 kHz / 3525 kbps / 24 bit (Core: 5.1 / 48 kHz / 1509 kbps / 24 bit)
Код: выделить все
General
Unique ID                            War Dogs 2016 1080p Blu-ray Remux AVC DTS-HD MA 5.1 - KRaLiMaRKo\War Dogs 2016 1080p Blu-ray Remux AVC DTS-HD MA 5.1 - KRaLiMaRKo.mkv
Format                                   : Matroska
Format version                           : Version 4 / Version 2
File size                                : 26.4 GiB
Duration                                 : 1 h 54 min
Overall bit rate mode                    : Variable
Overall bit rate                         : 33.1 Mb/s
Movie name                               : War Dogs 2016 1080p Blu-ray Remux AVC DTS-HD MA 5.1 - KRaLiMaRKo
Encoded date                             : UTC 2016-11-08 13:12:28
Writing application                      : mkvmerge v9.4.2 ('So High') 64bit
Writing library                          : libebml v1.3.4 + libmatroska v1.4.5

Video
ID                                       : 1
Format                                   : AVC
Format/Info                              : Advanced Video Codec
Format profile                           : High@L4.1
Format settings, CABAC                   : Yes
Format settings, ReFrames                : 2 frames
Codec ID                                 : V_MPEG4/ISO/AVC
Duration                                 : 1 h 54 min
Bit rate mode                            : Variable
Bit rate                                 : 29.4 Mb/s
Width                                    : 1 920 pixels
Height                                   : 1 080 pixels
Display aspect ratio                     : 16:9
Frame rate mode                          : Constant
Frame rate                               : 23.976 (24000/1001) FPS
Color space                              : YUV
Chroma subsampling                       : 4:2:0
Bit depth                                : 8 bits
Scan type                                : Progressive
Bits/(Pixel*Frame)                       : 0.591
Stream size                              : 23.4 GiB (89%)
Language                                 : English
Default                                  : Yes
Forced                                   : No

Audio
ID                                       : 2
Format                                   : DTS
Format/Info                              : Digital Theater Systems
Format profile                           : MA / Core
Mode                                     : 16
Format settings, Endianness              : Big
Codec ID                                 : A_DTS
Duration                                 : 1 h 54 min
Bit rate mode                            : Variable / Constant
Bit rate                                 : 3 525 kb/s / 1 509 kb/s
Channel(s)                               : 6 channels
Channel positions                        : Front: L C R, Side: L R, LFE
Sampling rate                            : 48.0 kHz
Frame rate                               : 93.750 FPS (512 spf)
Bit depth                                : 24 bits
Compression mode                         : Lossless / Lossy
Stream size                              : 2.81 GiB (11%)
Language                                 : English
Default                                  : Yes
Forced                                   : No

Text #1
ID                                       : 3
Format                                   : PGS
Codec ID                                 : S_HDMV/PGS
Codec ID/Info                            : Picture based subtitle format used on BDs/HD-DVDs
Duration                                 : 1 h 53 min
Bit rate                                 : 46.7 kb/s
Count of elements                        : 3872
Stream size                              : 37.8 MiB (0%)
Title                                    : SDH
Language                                 : English
Default                                  : Yes
Forced                                   : No

Text #2
ID                                       : 4
Format                                   : PGS
Codec ID                                 : S_HDMV/PGS
Codec ID/Info                            : Picture based subtitle format used on BDs/HD-DVDs
Duration                                 : 1 h 53 min
Bit rate                                 : 37.0 kb/s
Count of elements                        : 3214
Stream size                              : 30.0 MiB (0%)
Language                                 : French
Default                                  : No
Forced                                   : No

Text #3
ID                                       : 5
Format                                   : PGS
Codec ID                                 : S_HDMV/PGS
Codec ID/Info                            : Picture based subtitle format used on BDs/HD-DVDs
Duration                                 : 1 h 53 min
Bit rate                                 : 39.8 kb/s
Count of elements                        : 3374
Stream size                              : 32.3 MiB (0%)
Title                                    : Brazilian Portuguese
Language                                 : Portuguese
Default                                  : No
Forced                                   : No

Text #4
ID                                       : 6
Format                                   : PGS
Codec ID                                 : S_HDMV/PGS
Codec ID/Info                            : Picture based subtitle format used on BDs/HD-DVDs
Duration                                 : 1 h 53 min
Bit rate                                 : 41.7 kb/s
Count of elements                        : 3390
Stream size                              : 33.8 MiB (0%)
Title                                    : Latin American Spanish
Language                                 : Spanish
Default                                  : No
Forced                                   : No

Menu
00:00:00.000                             : en:00:00:00.000
00:10:13.780                             : en:00:10:13.780
00:19:00.931                             : en:00:19:00.931
00:30:21.111                             : en:00:30:21.111
00:40:02.525                             : en:00:40:02.525
00:50:56.178                             : en:00:50:56.178
00:59:34.362                             : en:00:59:34.362
01:10:59.380                             : en:01:10:59.380
01:20:08.929                             : en:01:20:08.929
01:32:06.020                             : en:01:32:06.020
01:39:36.220                             : en:01:39:36.220
01:48:19.118                             : en:01:48:19.118

Скриншоты:



Все одноименные релизы в Клубе

Время раздачи: с 13:00 до 23:00
[NNMClub.to]_War Dogs 2016 1080p Blu-ray Remux AVC DTS-HD MA 5.1 - KRaLiMaRKo.mkv.torrent
 Торрент: Золотая раздача  Зарегистрирован
 
Примагнититься
Free Leech
Зарегистрируйтесь и скачайте торрент!
132 KB
 Зарегистрирован:   11 Ноя 2016 19:50:01
 Размер:   26,4 GB  (
 Рейтинг:    (Голосов: 9)
 Поблагодарили:   41
 Проверка:   Оформление проверено модератором 11 Ноя 2016 19:52:25
Как cкачать  ·  Как раздать  ·  Правильно оформить  ·  Поднять ратио!  
Показать сообщения:   
Начать новую тему   Ответить на тему    Торрент-трекер NNM-Club -> Зарубежное кино -> Фильмы в оригинале (HD) Часовой пояс: GMT + 3
Страница 1 из 1