Интеллигентный торрент-трекер
canvas not supported
Нас вместе: 4 119 047

Михаил Задорнов. Задачник от Задорнова (2016.11.12) SATRip


 
 
RSS
Начать новую тему   Ответить на тему    Торрент-трекер NNM-Club -> Юмор -> Сатирики
Автор Сообщение
svlesin ®
Модератор Документалистики/TV
RG Releasers
Релизер 22222+ Uploader 100+
 

Online
Стаж: 7 лет
Сообщений: 29902
Ratio: 1014,548
Поблагодарили: 2792755
100%
russia.gif
Михаил Задорнов. Задачник от Задорнова (2016.11.12) SATRip
Телекомпания: РЕН
Жанр: Юмористический концерт, сатира

Режиссер: Михаил Задорнов

Описание:
В новом проекте писатель-сатирик на примере цитат из школьных сочинений и учебников раскрывает недостатки современной системы образования в нашей стране.

Продолжительность: ~ 01:33:39
Качество видео: SATRip
Субтитры: Отсутствуют

Видео: MPEG4, XviD, 704x448 (1.571), 25.000 fps, 1 800 Kbps (0.228 bit/pixel)
Аудио: MP3, 48.0 KHz, 2 ch, 192 Kbps, CBR
Код: выделить все
 Общее
Полное имя                               : D:\[1]\Задорнов\Михаил Задорнов. Задачник от Задорнова (2016.11.12).avi
Формат                                   : AVI
Формат/Информация                        : Audio Video Interleave
Размер файла                             : 1,31 Гбайт
Продолжительность                        : 1 ч. 33 м.
Общий поток                              : 2002 Кбит/сек
Программа кодирования                    : VirtualDubMod 1.5.10.3 | www.virtualdub-fr.org || (build 2550/release)
Библиотека кодирования                   : VirtualDubMod build 2550/release

Видео
Идентификатор                            : 0
Формат                                   : MPEG-4 Visual
Профиль формата                          : Advanced Simple@L5
Параметр BVOP формата                    : 2
Параметр QPel формата                    : Нет
Параметр GMC формата                     : Без точки перехода
Параметр матрицы формата                 : Default (H.263)
Идентификатор кодека                     : XVID
Идентификатор кодека/Подсказка           : XviD
Продолжительность                        : 1 ч. 33 м.
Битрейт                                  : 1800 Кбит/сек
Ширина                                   : 704 пикселя
Высота                                   : 448 пикселей
Соотношение сторон                       : 16:10
Частота кадров                           : 25,000 кадров/сек
Цветовое пространство                    : YUV
Субдискретизация насыщенности            : 4:2:0
Битовая глубина                          : 8 бит
Тип развёртки                            : Прогрессивная
Метод сжатия                             : С потерями
Бит/(Пиксели*Кадры)                      : 0.228
Размер потока                            : 1,18 Гбайт (90%)
Библиотека кодирования                   : XviD 1.2.1 (UTC 2008-12-04)

Аудио
Идентификатор                            : 1
Формат                                   : MPEG Audio
Версия формата                           : Version 1
Профиль формата                          : Layer 3
Режим                                    : Joint stereo
Расширение режима                        : MS Stereo
Идентификатор кодека                     : 55
Идентификатор кодека/Подсказка           : MP3
Продолжительность                        : 1 ч. 33 м.
Вид битрейта                             : Постоянный
Битрейт                                  : 192 Кбит/сек
Каналы                                   : 2 канала
Частота                                  : 48,0 КГц
Метод сжатия                             : С потерями
Размер потока                            : 129 Мбайт (10%)
Выравнивание                             : Соединение по промежуткам
Продолжительность промежутка             : 40  мс. (1,00 видеокадр)
Время предзагрузки промежутка            : 504  мс.
Библиотека кодирования                   : LAME3.99r
Настройки программы                      : -m j -V 4 -q 9 -lowpass 18.6 -b 192
 
Скриншоты:



Все одноименные релизы в Клубе
Время раздачи: 24/7. До первых 5 скачавших.
[NNMClub.to]_Mihail Zadornov. Zadachnik ot Zadornova (2016.11.12).avi.torrent
 Торрент:   Зарегистрирован
 
Примагнититься
Free Leech
Зарегистрируйтесь и скачайте торрент!
13,5 KB
 Зарегистрирован:   12 Ноя 2016 19:19:21
 Размер:   1,31 GB  (
 Рейтинг:   3,1 (Голосов: 77)
 Поблагодарили:   166
 Проверка:   Оформление проверено модератором 12 Ноя 2016 19:20:02
Как cкачать  ·  Как раздать  ·  Правильно оформить  ·  Поднять ратио!  
dnk77242
Стаж: 5 лет 9 мес.
Сообщений: 804
Ratio: 10,051
100%
Откуда: Tmb
nnm-club.gif
Эх, злые люди опять нарезку сделали вместо концерта... О нет

_________________
svlesin ®
Модератор Документалистики/TV
RG Releasers
Релизер 22222+ Uploader 100+
 

Online
Стаж: 7 лет
Сообщений: 29902
Ratio: 1014,548
Поблагодарили: 2792755
100%
russia.gif
dnk77242 писал(а): Перейти к сообщению
Эх, злые люди опять нарезку сделали вместо концерта... О нет

vladi​mirrr​74​
Стаж: 1 год 3 мес.
Сообщений: 40
Ratio: 28,392
100%
Уже даже не смешно.
Snowm​an201​4​
Стаж: 2 года 3 мес.
Сообщений: 71
Ratio: 4,65
100%
Откуда: Русь-​матуш​ка​
russia.gif
Очень круто. Но надо целиком концерт, ведь лучшие моменты каждый выбирает сам)

_________________
"Как говорил дядя Паша - семь убийств, две судимости, три побега - мы при еде, питье и не в обиде"
Mahnamar
Стаж: 5 лет 2 мес.
Сообщений: 343
Ratio: 21,705
100%
witch.png
Здоровья "шутнику".
lait-​rober​t​
Стаж: 7 лет 7 мес.
Сообщений: 73
Ratio: 2,463
14.37%
russia.gif
Пустая болтовня, а результат сделал бабки!!!
vasvosn
Стаж: 4 года 11 мес.
Сообщений: 7
Ratio: 0,877
1.58%
Что не говори а воз и ныне там"
Glavar123
Стаж: 6 лет 10 мес.
Сообщений: 172
Ratio: 5,52
43.27%
Откуда: из здравого прошлого
ussr.gif
svlesin писал(а): Перейти к сообщению
dnk77242 писал(а): Перейти к сообщению
Эх, злые люди опять нарезку сделали вместо концерта... О нет

надпись "лучшее" попробуй найди(мелкими буквами, это как неуважение, лишь бы скачали по-больше - да).

_________________
"Сойти с ума от этого завета: Летит лишь тьма быстрее света" (Алексей Сисакян)
ostivte
Стаж: 5 мес. 15 дней
Сообщений: 28
Ratio: 1,148
2.24%
Лингвофрик опять в тренде? Всё диски с бородатыми "шутками" клепает.
Показать сообщения:   
Начать новую тему   Ответить на тему    Торрент-трекер NNM-Club -> Юмор -> Сатирики Часовой пояс: GMT + 3
Страница 1 из 1