Интеллигентный торрент-трекер
canvas not supported
Нас вместе: 4 103 184

Механик: Воскрешение / Mechanic: Resurrection (2016) BDRemux [H.264/1080p] [EN / EN, Sp Sub]


 
 
RSS
Начать новую тему   Ответить на тему    Торрент-трекер NNM-Club -> Зарубежное кино -> Фильмы в оригинале (HD)
Автор Сообщение
smaster67 ®
Модератор Видео
Покровитель талантов Uploader 300+
Стаж: 7 лет 5 мес.
Сообщений: 6255
Ratio: 180,048
Поблагодарили: 173720
100%
Механик: Воскрешение / Mechanic: Resurrection (2016) BDRemux [H.264/1080p] [EN / EN, Sp Sub]

Производство: Франция, США
Жанр: боевик, триллер, криминал

Режиссер: Деннис Ганзель
Актеры: Джейсон Стэйтем, Джессика Альба, Томми Ли Джонс, Мишель Йео, Сэм Хэзелдайн, Джон Ченатьемпо, Тоби Эддингтон, Феми Элуфоводжо, Антео Квинтавалле, Ейяин Рхатха Пхонгам, Бонни З. Хатчинсон, Стюарт Торп

Описание:
Артура Бишопа, давно оставившего свое криминальное ремесло, вынуждают снова вступить в игру. Чтобы похитители вернули его возлюбленную, он должен сделать то, что у него получается лучше всего: от него требуется совершить три убийства, идеально обставленных как несчастные случаи.



Продолжительность: 01:38:38
Качество видео: BDRemux
Перевод: Отсутствует
Язык озвучки: Английский
Язык субтитров: английский, испанский
Вид субтитров: Вшитые

Видео: AVC, 1920x1080 (16:9), 33918 kbps, 23,976 fps, 0,682 bpp
Аудио №1: английский / Atmos / TrueHD / 7.1 / 5350 kbps / 48.0 kHz
Аудио №2: английский / AC3 / 5.1 / 48 kHz / 640 kbps /
Код: выделить все
General
Unique ID                                Mechanic.Resurrection.2016.REMUX.1080p.BluRay.AVC.Atmos.TrueHD7.1-iFT\Mechanic.Resurrection.2016.REMUX.1080p.BluRay.AVC.Atmos.TrueHD7.1-iFT.mkv
Format                                   : Matroska
Format version                           : Version 4 / Version 2
File size                                : 27.6 GiB
Duration                                 : 1 h 38 min
Overall bit rate mode                    : Variable
Overall bit rate                         : 40.0 Mb/s
Movie name                               : IFT
Encoded date                             : UTC 2016-11-12 16:08:59
Writing application                      : mkvmerge v8.5.1 ('Where you lead I will follow') 64bit
Writing library                          : libebml v1.3.3 + libmatroska v1.4.4

Video
ID                                       : 1
Format                                   : AVC
Format/Info                              : Advanced Video Codec
Format profile                           : High@L4.1
Format settings, CABAC                   : Yes
Format settings, ReFrames                : 4 frames
Codec ID                                 : V_MPEG4/ISO/AVC
Duration                                 : 1 h 38 min
Bit rate mode                            : Variable
Bit rate                                 : 33.9 Mb/s
Maximum bit rate                         : 36.0 Mb/s
Width                                    : 1 920 pixels
Height                                   : 1 080 pixels
Display aspect ratio                     : 16:9
Frame rate mode                          : Constant
Frame rate                               : 23.976 (24000/1001) FPS
Color space                              : YUV
Chroma subsampling                       : 4:2:0
Bit depth                                : 8 bits
Scan type                                : Progressive
Bits/(Pixel*Frame)                       : 0.682
Stream size                              : 23.4 GiB (85%)
Language                                 : English
Default                                  : Yes
Forced                                   : No

Audio #1
ID                                       : 2
Format                                   : Atmos / TrueHD
Codec ID                                 : A_TRUEHD
Duration                                 : 1 h 38 min
Bit rate mode                            : Variable
Bit rate                                 : 5 351 kb/s
Maximum bit rate                         : 7 938 kb/s
Channel(s)                               : Object Based / 8 channels
Channel positions                        : Object Based / Front: L C R, Side: L R, Back: L R, LFE
Sampling rate                            :  / 48.0 kHz
Frame rate                               : 1 200.000 FPS (40 spf)
Compression mode                         : Lossless
Stream size                              : 3.69 GiB (13%)
Language                                 : English
Default                                  : Yes
Forced                                   : No

Audio #2
ID                                       : 3
Format                                   : AC-3
Format/Info                              : Audio Coding 3
Mode extension                           : CM (complete main)
Format settings, Endianness              : Big
Codec ID                                 : A_AC3
Duration                                 : 1 h 38 min
Bit rate mode                            : Constant
Bit rate                                 : 640 kb/s
Channel(s)                               : 6 channels
Channel positions                        : Front: L C R, Side: L R, LFE
Sampling rate                            : 48.0 kHz
Frame rate                               : 31.250 FPS (1536 spf)
Compression mode                         : Lossy
Stream size                              : 452 MiB (2%)
Title                                    : AC3 embedded
Language                                 : English
Default                                  : No
Forced                                   : No

Text #1
ID                                       : 4
Format                                   : PGS
Muxing mode                              : zlib
Codec ID                                 : S_HDMV/PGS
Codec ID/Info                            : Picture based subtitle format used on BDs/HD-DVDs
Duration                                 : 1 h 30 min
Bit rate                                 : 7 704 b/s
Count of elements                        : 1278
Stream size                              : 5.00 MiB (0%)
Language                                 : English
Default                                  : Yes
Forced                                   : No

Text #2
ID                                       : 5
Format                                   : PGS
Muxing mode                              : zlib
Codec ID                                 : S_HDMV/PGS
Codec ID/Info                            : Picture based subtitle format used on BDs/HD-DVDs
Duration                                 : 1 h 33 min
Bit rate                                 : 9 147 b/s
Count of elements                        : 1707
Stream size                              : 6.11 MiB (0%)
Title                                    : SDH
Language                                 : English
Default                                  : No
Forced                                   : No

Text #3
ID                                       : 6
Format                                   : PGS
Muxing mode                              : zlib
Codec ID                                 : S_HDMV/PGS
Codec ID/Info                            : Picture based subtitle format used on BDs/HD-DVDs
Duration                                 : 1 h 33 min
Bit rate                                 : 8 150 b/s
Count of elements                        : 1335
Stream size                              : 5.46 MiB (0%)
Title                                    : Latin
Language                                 : Spanish
Default                                  : No
Forced                                   : No

Menu
00:00:00.000                             : en:00:00:00.000
00:06:34.936                             : en:00:06:34.936
00:11:51.336                             : en:00:11:51.336
00:18:31.277                             : en:00:18:31.277
00:26:04.897                             : en:00:26:04.897
00:31:57.540                             : en:00:31:57.540
00:38:31.267                             : en:00:38:31.267
00:43:35.696                             : en:00:43:35.696
00:49:23.210                             : en:00:49:23.210
00:54:20.382                             : en:00:54:20.382
01:00:09.856                             : en:01:00:09.856
01:05:50.446                             : en:01:05:50.446
01:10:25.429                             : en:01:10:25.429
01:14:52.363                             : en:01:14:52.363
01:21:04.860                             : en:01:21:04.860
01:31:38.785                             : en:01:31:38.785

Скриншоты:



Все одноименные релизы в Клубе

Время раздачи: с 13:00 до 23:00
[NNMClub.to]_Mechanic.Resurrection.2016.REMUX.1080p.BluRay.AVC.Atmos.TrueHD7.1-iFT.mkv.torrent
 Торрент: Золотая раздача  Зарегистрирован
 
Примагнититься
Free Leech
Зарегистрируйтесь и скачайте торрент!
138 KB
 Зарегистрирован:   12 Ноя 2016 23:15:02
 Размер:   27,6 GB  (
 Рейтинг:    (Голосов: 6)
 Поблагодарили:   37
 Проверка:   Оформление проверено модератором 12 Ноя 2016 23:15:47
Как cкачать  ·  Как раздать  ·  Правильно оформить  ·  Поднять ратио!  
DeniFitch
Стаж: 4 года 11 мес.
Сообщений: 29
Ratio: 7,356
100%
ukraine.gif
Отвратительный фильм, решили срубить бабла на успехе первой части, а в конечном итоге я считаю даже оценку 5.5 от кинопоиска и ИМДБ завышеной. Я бы оценил этот фильм максимум на 3 из 10 так как сдесь унило всё, начиная от сценария и заканчивая постановкой экшен сцен и самими спецефектами!
Показать сообщения:   
Начать новую тему   Ответить на тему    Торрент-трекер NNM-Club -> Зарубежное кино -> Фильмы в оригинале (HD) Часовой пояс: GMT + 3
Страница 1 из 1