Интеллигентный торрент-трекер
canvas not supported
Нас вместе: 4 103 208

Озеро Эри / Lake Eerie (2016) BDRip [H.264/720p] [EN]


 
 
RSS
Начать новую тему   Ответить на тему    Торрент-трекер NNM-Club -> Зарубежное кино -> Фильмы в оригинале (HD)
Автор Сообщение
smaster67 ®
Модератор Видео
Покровитель талантов Uploader 300+
Стаж: 7 лет 5 мес.
Сообщений: 6255
Ratio: 180,048
Поблагодарили: 173720
100%
Озеро Эри / Lake Eerie (2016) BDRip [H.264/720p] [EN]

Производство: США
Жанр: ужасы, фантастика, триллер

Режиссер: Крис Мэйджорс
Актеры: Лэнс Хенриксен, Мэрилин Гильотти, Бетси Бейкер, Мередит Мэйджерс, Аль Сноу, Дж. Ларри Батлер, Джейсон К. Уиксом, Аннемийн Ниувкоп, Крис Мэйджорс, Кевин Ар Аллен, Виктория Джонстоун

Описание:
Молодая вдова переезжает в старый дом на озере Эри, чтобы оправиться от внезапной потери своего мужа. Тем не менее, она вскоре обнаруживает страшную тайну, и что она не одна.



Продолжительность: 01:43:33
Качество видео: BDRip 720p
Перевод: Отсутствует
Язык озвучки: Английский

Видео: AVC, 1280x640 (2.000), 4071 kbps, 23,976 fps, 0,207 bpp
Аудио: английский / AC3 / 5.1 / 48 kHz / 448 kbps /
Код: выделить все
General
Unique ID                               Lake.Eerie.2016.720p.mkv
Format                                   : Matroska
Format version                           : Version 4 / Version 2
File size                                : 3.27 GiB
Duration                                 : 1 h 43 min
Overall bit rate                         : 4 519 kb/s
Encoded date                             : UTC 2016-11-12 21:47:23
Writing application                      : mkvmerge v9.5.0 ('Quiet Fire') 64bit
Writing library                          : libebml v1.3.4 + libmatroska v1.4.5

Video
ID                                       : 1
Format                                   : AVC
Format/Info                              : Advanced Video Codec
Format profile                           : High@L4.1
Format settings, CABAC                   : Yes
Format settings, ReFrames                : 5 frames
Codec ID                                 : V_MPEG4/ISO/AVC
Duration                                 : 1 h 43 min
Bit rate                                 : 4 071 kb/s
Width                                    : 1 280 pixels
Height                                   : 640 pixels
Display aspect ratio                     : 2.000
Frame rate mode                          : Constant
Frame rate                               : 23.976 (24000/1001) FPS
Color space                              : YUV
Chroma subsampling                       : 4:2:0
Bit depth                                : 8 bits
Scan type                                : Progressive
Bits/(Pixel*Frame)                       : 0.207
Stream size                              : 2.94 GiB (90%)
Writing library                          : x264 core 148 r2721 72d53ab
Encoding settings                        : cabac=1 / ref=5 / deblock=1:-3:-3 / analyse=0x3:0x113 / me=umh / subme=8 / psy=1 / psy_rd=1.00:0.25 / mixed_ref=1 / me_range=24 / chroma_me=1 / trellis=1 / 8x8dct=1 / cqm=0 / deadzone=21,11 / fast_pskip=1 / chroma_qp_offset=-4 / threads=20 / lookahead_threads=3 / sliced_threads=0 / nr=0 / decimate=1 / interlaced=0 / bluray_compat=0 / constrained_intra=0 / bframes=3 / b_pyramid=2 / b_adapt=1 / b_bias=0 / direct=3 / weightb=1 / open_gop=0 / weightp=2 / keyint=240 / keyint_min=24 / scenecut=40 / intra_refresh=0 / rc_lookahead=50 / rc=2pass / mbtree=1 / bitrate=4071 / ratetol=1.0 / qcomp=0.60 / qpmin=0 / qpmax=69 / qpstep=4 / cplxblur=20.0 / qblur=0.5 / ip_ratio=1.40 / aq=1:0.75
Default                                  : Yes
Forced                                   : No

Audio
ID                                       : 2
Format                                   : AC-3
Format/Info                              : Audio Coding 3
Mode extension                           : CM (complete main)
Format settings, Endianness              : Big
Codec ID                                 : A_AC3
Duration                                 : 1 h 43 min
Bit rate mode                            : Constant
Bit rate                                 : 448 kb/s
Channel(s)                               : 6 channels
Channel positions                        : Front: L C R, Side: L R, LFE
Sampling rate                            : 48.0 kHz
Frame rate                               : 31.250 FPS (1536 spf)
Compression mode                         : Lossy
Stream size                              : 332 MiB (10%)
Language                                 : English
Default                                  : Yes
Forced                                   : No

Menu
00:00:00.000                             : en:00:00:00.000
00:01:20.998                             : en:00:01:20.998
00:06:58.001                             : en:00:06:58.001
00:08:37.934                             : en:00:08:37.934
00:10:49.065                             : en:00:10:49.065
00:12:01.971                             : en:00:12:01.971
00:16:35.995                             : en:00:16:35.995
00:19:43.933                             : en:00:19:43.933
00:23:32.995                             : en:00:23:32.995
00:29:11.959                             : en:00:29:11.959
00:32:17.018                             : en:00:32:17.018
00:34:06.962                             : en:00:34:06.962
00:38:23.968                             : en:00:38:23.968
00:41:54.053                             : en:00:41:54.053
00:45:29.977                             : en:00:45:29.977
00:48:43.003                             : en:00:48:43.003
00:57:33.992                             : en:00:57:33.992
00:59:26.980                             : en:00:59:26.980
01:04:52.972                             : en:01:04:52.972
01:10:17.964                             : en:01:10:17.964
01:11:50.056                             : en:01:11:50.056
01:16:08.981                             : en:01:16:08.981
01:21:32.971                             : en:01:21:32.971
01:26:28.934                             : en:01:26:28.934
01:36:48.011                             : en:01:36:48.011
01:39:27.962                             : en:01:39:27.962
01:40:40.034                             : en:01:40:40.034

Скриншоты:



Все одноименные релизы в Клубе

Время раздачи: с 13:00 до 23:00
[NNMClub.to]_Lake.Eerie.2016.720p.mkv.torrent
 Торрент: Серебряная раздча  Зарегистрирован
 
Примагнититься
Free Leech
Зарегистрируйтесь и скачайте торрент!
16,5 KB
 Зарегистрирован:   13 Ноя 2016 19:29:07
 Размер:   3,27 GB  (
 Рейтинг:    (Голосов: 7)
 Поблагодарили:   32
 Проверка:   Оформление проверено модератором 13 Ноя 2016 19:30:39
Как cкачать  ·  Как раздать  ·  Правильно оформить  ·  Поднять ратио!  
Показать сообщения:   
Начать новую тему   Ответить на тему    Торрент-трекер NNM-Club -> Зарубежное кино -> Фильмы в оригинале (HD) Часовой пояс: GMT + 3
Страница 1 из 1