Интеллигентный торрент-трекер
canvas not supported
Нас вместе: 4 113 930

Любой ценой / Hell or High Water (2016) BDRemux [H.264/1080p] [EN / EN, Sp Sub]


 
 
RSS
Начать новую тему   Ответить на тему    Торрент-трекер NNM-Club -> Зарубежное кино -> Фильмы в оригинале (HD)
Автор Сообщение
smaster67 ®
Модератор Видео
Покровитель талантов Uploader 300+
Стаж: 7 лет 5 мес.
Сообщений: 6275
Ratio: 180,923
Поблагодарили: 174461
100%
Любой ценой / Hell or High Water (2016) BDRemux [H.264/1080p] [EN / EN, Sp Sub]

Производство: США
Жанр: драма, криминал

Режиссер: Дэвид Маккензи
Актеры: Джефф Бриджес, Крис Пайн, Бен Фостер, Джил Бирмингем, Дейл Дикки, Уильям Стерчи, Бак Тейлор, Кристин Берг, Кит Мэривезер, Жакмо Буззел, Кэти Миксон, Эмбер Мидфандер

Описание:
Два брата-лузера решают наведаться в хранилища пары-тройки банков, которые много лет безбожно обкрадывают своих должников. Расследование дерзких ограблений с грубым почерком увенчает карьеру шерифа Маркуса. Но куда выведет это нехитрое дело?



Продолжительность: 01:42:15
Качество видео: BDRemux
Перевод: Отсутствует
Язык озвучки: Английский
Язык субтитров: английский, испанский
Вид субтитров: Вшитые

Видео: AVC, 1920x1080 (16:9), 29824 kbps, 23,976 fps, 0,600 bpp
Аудио: английский / DTS-HD / 5.1 / 48 kHz / 3560 kbps / 24 bit (Core: 5.1 / 48 kHz / 1509 kbps / 24 bit)
Код: выделить все
General
Unique ID                        Hell.or.High.Water.2016.REMUX.1080p.BluRay.AVC.DTS-HD.MA5.1-iFT\Hell.or.High.Water.2016.REMUX.1080p.BluRay.AVC.DTS-HD.MA5.1-iFT.mkv
Format                                   : Matroska
Format version                           : Version 4 / Version 2
File size                                : 23.9 GiB
Duration                                 : 1 h 42 min
Overall bit rate mode                    : Variable
Overall bit rate                         : 33.4 Mb/s
Encoded date                             : UTC 2016-11-13 09:33:17
Writing application                      : mkvmerge v8.9.0 ('Father Daughter') 64bit
Writing library                          : libebml v1.3.3 + libmatroska v1.4.4

Video
ID                                       : 1
Format                                   : AVC
Format/Info                              : Advanced Video Codec
Format profile                           : High@L4.1
Format settings, CABAC                   : Yes
Format settings, ReFrames                : 4 frames
Codec ID                                 : V_MPEG4/ISO/AVC
Duration                                 : 1 h 42 min
Bit rate mode                            : Variable
Bit rate                                 : 29.8 Mb/s
Maximum bit rate                         : 35.0 Mb/s
Width                                    : 1 920 pixels
Height                                   : 1 080 pixels
Display aspect ratio                     : 16:9
Frame rate mode                          : Constant
Frame rate                               : 23.976 (24000/1001) FPS
Standard                                 : NTSC
Color space                              : YUV
Chroma subsampling                       : 4:2:0
Bit depth                                : 8 bits
Scan type                                : Progressive
Bits/(Pixel*Frame)                       : 0.600
Stream size                              : 21.3 GiB (89%)
Title                                    : English
Language                                 : English
Default                                  : Yes
Forced                                   : No
Color range                              : Limited
Color primaries                          : BT.709
Transfer characteristics                 : BT.709
Matrix coefficients                      : BT.709

Audio
ID                                       : 2
Format                                   : DTS
Format/Info                              : Digital Theater Systems
Format profile                           : MA / Core
Mode                                     : 16
Format settings, Endianness              : Big
Codec ID                                 : A_DTS
Duration                                 : 1 h 42 min
Bit rate mode                            : Variable / Constant
Bit rate                                 : 3 561 kb/s / 1 509 kb/s
Channel(s)                               : 6 channels
Channel positions                        : Front: L C R, Side: L R, LFE
Sampling rate                            : 48.0 kHz
Frame rate                               : 93.750 FPS (512 spf)
Bit depth                                : 24 bits
Compression mode                         : Lossless / Lossy
Stream size                              : 2.54 GiB (11%)
Title                                    : English
Language                                 : English
Default                                  : Yes
Forced                                   : No

Text #1
ID                                       : 3
Format                                   : PGS
Muxing mode                              : zlib
Codec ID                                 : S_HDMV/PGS
Codec ID/Info                            : Picture based subtitle format used on BDs/HD-DVDs
Duration                                 : 1 h 34 min
Bit rate                                 : 7 988 b/s
Count of elements                        : 2392
Stream size                              : 5.41 MiB (0%)
Title                                    : English-PGS
Language                                 : English
Default                                  : Yes
Forced                                   : No

Text #2
ID                                       : 4
Format                                   : PGS
Muxing mode                              : zlib
Codec ID                                 : S_HDMV/PGS
Codec ID/Info                            : Picture based subtitle format used on BDs/HD-DVDs
Duration                                 : 1 h 36 min
Bit rate                                 : 8 974 b/s
Count of elements                        : 2658
Stream size                              : 6.17 MiB (0%)
Title                                    : English-SDH
Language                                 : English
Default                                  : No
Forced                                   : No

Text #3
ID                                       : 5
Format                                   : PGS
Muxing mode                              : zlib
Codec ID                                 : S_HDMV/PGS
Codec ID/Info                            : Picture based subtitle format used on BDs/HD-DVDs
Duration                                 : 1 h 40 min
Bit rate                                 : 6 855 b/s
Count of elements                        : 2248
Stream size                              : 4.94 MiB (0%)
Title                                    : Spanish-PGS
Language                                 : Spanish
Default                                  : No
Forced                                   : No

Menu
00:00:00.000                             : en:00:00:00.000
00:09:37.243                             : en:00:09:37.243
00:13:50.455                             : en:00:13:50.455
00:22:14.583                             : en:00:22:14.583
00:28:40.385                             : en:00:28:40.385
00:31:54.329                             : en:00:31:54.329
00:40:49.614                             : en:00:40:49.614
00:46:49.932                             : en:00:46:49.932
00:55:45.092                             : en:00:55:45.092
01:02:06.473                             : en:01:02:06.473
01:09:52.897                             : en:01:09:52.897
01:14:04.649                             : en:01:14:04.649
01:20:56.226                             : en:01:20:56.226
01:29:09.135                             : en:01:29:09.135
01:35:03.865                             : en:01:35:03.865
01:38:28.277                             : en:01:38:28.277

Скриншоты:



Все одноименные релизы в Клубе

Время раздачи: с 13:00 до 23:00
[NNMClub.to]_Hell.or.High.Water.2016.REMUX.1080p.BluRay.AVC.DTS-HD.MA5.1-iFT.mkv.torrent
 Торрент: Золотая раздача  Зарегистрирован
 
Примагнититься
Free Leech
Зарегистрируйтесь и скачайте торрент!
120 KB
 Зарегистрирован:   13 Ноя 2016 20:47:39
 Размер:   23,9 GB  (
 Рейтинг:    (Голосов: 7)
 Поблагодарили:   27
 Проверка:   Оформление проверено модератором 13 Ноя 2016 20:48:29
Как cкачать  ·  Как раздать  ·  Правильно оформить  ·  Поднять ратио!  
chefik1990
Стаж: 5 лет 3 мес.
Сообщений: 81
Ratio: 5,556
62.06%
afghanistan.gif
отличный фильм
gloom_99
Стаж: 4 года 7 мес.
Сообщений: 140
Ratio: 28,632
Раздал: 21,42 TB
Поблагодарили: 286
74.91%
Откуда: Fog
netherlands.gif
показалось, что Пол Уокер на постере)
deymon1981
Стаж: 5 лет 9 мес.
Сообщений: 21
Ratio: 9,443
0%
Откуда: Краснодар
russia.gif
Ну что сказать... При всем при том, что в фильме практически нет смысла, в нем собраны весьма приличные актеры... И... как ни странно..., он мне понравился, один разговор со старушкой официанткой чего стоит, да и еще приколы из реальной жизни присутствуют... Мораль в фильме жутковатая - все хотят друг друга обобрать... Но самое главное - нет ничего страшнее нищеты, даже смерть других людей не помеха...
Показать сообщения:   
Начать новую тему   Ответить на тему    Торрент-трекер NNM-Club -> Зарубежное кино -> Фильмы в оригинале (HD) Часовой пояс: GMT + 3
Страница 1 из 1