Интеллигентный торрент-трекер
canvas not supported
Нас вместе: 4 118 031

Beth Hart - Fire on the Floor (2016) [FLAC 2.0 24/192|image|Vinyl-Rip] <Blues>


 
 
RSS
Начать новую тему   Ответить на тему    Торрент-трекер NNM-Club -> HD Audio и Многоканальная Музыка -> Vinyl-Rip и Hand-Made
Автор Сообщение
tegoffs ®
Виниловод. Сталкер
Стаж: 8 лет 11 мес.
Сообщений: 2896
Ratio: 17,52
Поблагодарили: 8255
100%
Откуда: мне знать?
honduras.gif
Beth Hart - Fire on the Floor (2016)
Год: 2016
Лейбл: Provogue (PRD75061-2)
Страна: Europe
Жанр: Blues
Продолжительность: 00:48:27

Кодек: FLAC 2.0 24/192
Тип рипа: image+.cue
Формат записи: 32/192
Формат раздачи: 24/192

Треклист:
01. Jazz Man (3:52)
02. Love Gangster (4:10)
03. Coca Cola (3:38)
04. Let's Get Together (3:39)
05. Picture in a Frame (4:39)
06. Fat Man (3:52)
07. Fire on the Floor (5:13)
08. Woman You've Been Dreaming Of (4:22)
09. Baby Shot Me Down (3:23)
10. Good Day to Cry (4:30)
11. Love Is a Lie (3:13)
12. No Place Like Home (3:55)
Состояние диска удовлетворительное, но на грани - цветной винил и необходимость впихнуть почти пятьдесят минут дали шумную поверхность и тихий сигнал (ex-). Одно утешает - на сидишке это звучить куда как ужасней за счет компрессии.
Тракт: AT-OC9/III -> Yamaha GT-750 -> Lehmann Audio Black Cube SE -> Lynx L22 (интерконнекты Yamaha и Lynx).
Снято Sound Forge Pro 11, из постобработки - убрал существенные щелчки. Fade-in, fade-out.
Кьюшка и постер прописаны во флак.
Коврики приложены.
Код: выделить все
General
Complete name : J:\torrents\Beth Hart - 2016 - Fire on the Floor\Beth Hart - Fire on the Floor.flac
Format : FLAC
Format/Info : Free Lossless Audio Codec
File size : 1.78 GiB
Duration : 48mn 27s
Overall bit rate mode : Variable
Overall bit rate : 5 254 Kbps
Album : Fire on the Floor
Performer : Beth Hart
Producer : https://www.discogs.com/Beth-Hart-Fire-On-The-Floor-/release/9174907
Genre : Blues
Recorded date : 2016
Cover : Yes
Cover type : Cover (front)
Cover MIME : image/jpeg
Comment : AT-OC9/III -> Yamaha GT-750 -> Lehmann Audio Black Cube SE -> Lynx L22 (интерконнекты Yamaha и Lynx).
CUESHEET : REM GENRE Blues / REM DATE 2016 / PERFORMER "Beth Hart" / TITLE "Fire on the Floor" / FILE "Beth Hart - Fire on the Floor.flac" WAVE / TRACK 01 AUDIO / TITLE "Jazz Man" / PERFORMER "Beth Hart" / INDEX 01 00:00:00 / TRACK 02 AUDIO / TITLE "Love Gangster" / PERFORMER "Beth Hart" / INDEX 01 03:51:53 / TRACK 03 AUDIO / TITLE "Coca Cola" / PERFORMER "Beth Hart" / INDEX 01 08:01:51 / TRACK 04 AUDIO / TITLE "Let's Get Together" / PERFORMER "Beth Hart" / INDEX 01 11:40:04 / TRACK 05 AUDIO / TITLE "Picture in a Frame" / PERFORMER "Beth Hart" / INDEX 01 15:19:25 / TRACK 06 AUDIO / TITLE "Fat Man" / PERFORMER "Beth Hart" / INDEX 01 19:58:59 / TRACK 07 AUDIO / TITLE "Fire on the Floor" / PERFORMER "Beth Hart" / INDEX 01 23:51:11 / TRACK 08 AUDIO / TITLE "Woman You've Been Dreaming Of" / PERFORMER "Beth Hart" / INDEX 01 29:03:59 / TRACK 09 AUDIO / TITLE "Baby Shot Me Down" / PERFORMER "Beth Hart" / INDEX 01 33:25:46 / TRACK 10 AUDIO / TITLE "Good Day to Cry" / PERFORMER "Beth Hart" / INDEX 01 36:48:32 / TRACK 11 AUDIO / TITLE "Love Is a Lie" / PERFORMER "Beth Hart" / INDEX 01 41:18:59 / TRACK 12 AUDIO / TITLE "No Place Like Home" / PERFORMER "Beth Hart" / INDEX 01 44:31:59

Audio
Format : FLAC
Format/Info : Free Lossless Audio Codec
Duration : 48mn 27s
Bit rate mode : Variable
Bit rate : 5 254 Kbps
Channel(s) : 2 channels
Channel positions : Front: L R
Sampling rate : 192 KHz
Bit depth : 24 bits
Stream size : 1.78 GiB (100%)
Writing library : libFLAC 1.3.0 (UTC 2013-05-26)
Код: выделить все
foobar2000 1.3.9 / Dynamic Range Meter 1.1.1
log date: 2016-11-14 22:42:27

--------------------------------------------------------------------------------
Analyzed: Beth Hart / Fire on the Floor
--------------------------------------------------------------------------------

DR         Peak         RMS     Duration Track
--------------------------------------------------------------------------------
DR9       -6.24 dB   -18.84 dB      3:52 01-Jazz Man
DR10      -6.92 dB   -19.67 dB      4:10 02-Love Gangster
DR11      -7.74 dB   -22.99 dB      3:38 03-Coca Cola
DR10      -7.38 dB   -19.44 dB      3:39 04-Let's Get Together
DR10      -7.83 dB   -20.71 dB      4:39 05-Picture in a Frame
DR9       -8.01 dB   -20.15 dB      3:52 06-Fat Man
DR8       -7.25 dB   -18.14 dB      5:13 07-Fire on the Floor
DR12      -8.22 dB   -23.78 dB      4:22 08-Woman You've Been Dreaming Of
DR10      -8.54 dB   -21.00 dB      3:23 09-Baby Shot Me Down
DR8       -9.02 dB   -21.50 dB      4:30 10-Good Day to Cry
DR8       -6.37 dB   -18.92 dB      3:13 11-Love Is a Lie
DR10     -10.27 dB   -24.89 dB      3:55 12-No Place Like Home
--------------------------------------------------------------------------------

Number of tracks:  12
Official DR value: DR10

Samplerate:        192000 Hz
Channels:          2
Bits per sample:   24
Bitrate:           5254 kbps
Codec:             FLAC
================================================================================
Время раздачи: 24/7 до пяти скачавших, канал дохлый, терпеливо ждем.
[NNMClub.to]_Beth Hart - 2016 - Fire on the Floor.torrent
 Торрент: Золотая раздача  Зарегистрирован
 
Примагнититься

Зарегистрируйтесь и скачайте торрент!
18,7 KB
 Зарегистрирован:   15 Ноя 2016 07:06:56
 Размер:   1,79 GB  (
 Рейтинг:   5 (Голосов: 15)
 Поблагодарили:   92
 Проверка:   Оформление проверено модератором 15 Ноя 2016 08:45:01
Как cкачать  ·  Как раздать  ·  Правильно оформить  ·  Поднять ратио!  
VINIL MAN
Виниловый маньяк
Стаж: 6 лет 9 мес.
Сообщений: 8954
Ratio: 106,851
Раздал: 2,637 TB
Поблагодарили: 32692
100%
Откуда: Переяслав
ukraine.gif
Большое спасибо! От Love Gangstery у меня крышу сносит, а Love Is A Lie контрольный в голову. :D

_________________
Я не собираюсь менять мир, я просто хочу перевязать вам раны... Ян Андерсон
tegoffs ®
Виниловод. Сталкер
Стаж: 8 лет 11 мес.
Сообщений: 2896
Ratio: 17,52
Поблагодарили: 8255
100%
Откуда: мне знать?
honduras.gif
VINIL MAN писал(а): Перейти к сообщению
а Love Is A Lie контрольный в голову.

Мужичка там немного жаль, но она точно права! :)

_________________
It's only rock 'n' roll but I like it! (c) Jagger and Richards
Показать сообщения:   
Начать новую тему   Ответить на тему    Торрент-трекер NNM-Club -> HD Audio и Многоканальная Музыка -> Vinyl-Rip и Hand-Made Часовой пояс: GMT + 3
Страница 1 из 1