Интеллигентный торрент-трекер
canvas not supported
Нас вместе: 4 104 030

Warmth - Discography 12 Releases (2014-2016) [FLAC|Lossless|WEB-DL|tracks] <Dub Techno, Ambient>


 
 
RSS
Начать новую тему   Ответить на тему    Торрент-трекер NNM-Club -> Electronic -> House, Techno, Electro, Minimal (Lossless)
Автор Сообщение
vilator ®
Модератор Музыки
RG Музыки
 
Стаж: 7 лет 7 мес.
Сообщений: 5412
Ratio: 117,583
Поблагодарили: 104009
100%
Откуда: Minsk
pirates.png
Warmth Discography

Agustín Mena - DJ & producer from Valencia, Spain. Runs the label Archives.
Жанр: Dub Techno, Ambient • Страна: Spain • Год издания: 2014-2016 • Тип издания: WEB
Аудиокодек: FLAC (*.flac) • Тип рипа: tracks • Продолжительность: 07:17:04 • Источник: bandcamp, beatport
Треклист:
Год выпуска: 2014
Продолжительность: 00:57:31
Треклист:

01. Warmth - Away (07:12)
02. Warmth - Away (Faidel Remix) (08:00)
03. Faidel & Warmth - Zenit (06:46)
04. Faidel & Warmth - Stray Lights (07:35)
05. Faidel & Warmth - Stray Lights (Ambient Version) (08:00)
06. Faidel & Warmth - Magnitude (06:56)
07. Faidel - Materia (06:12)
08. Faidel - Materia (Warmth Remix) (06:50)

-----------------------

DON'T MODIFY THIS FILE

-----------------------

PERFORMER: auCDtect Task Manager, ver. 1.5.1RC6 build 1.5.1.7
Copyright (c) 2008-2010 y-soft. All rights reserved
http://y-soft.org

ANALYZER: auCDtect: CD records authenticity detector, version 0.8.2
Copyright (c) 2004 Oleg Berngardt. All rights reserved.
Copyright (c) 2004 Alexander Djourik. All rights reserved.

FILE: 08. Faidel - Materia (Warmth Remix).flac
Size: 43395936 Hash: ACBB38E98593540EC111E21C48D3DC36 Accuracy: -m0
Conclusion: CDDA 100%
Signature: 2EC201391B4CB98CF4D3F89AFC5AC7339B27E5C1
FILE: 07. Faidel - Materia.flac
Size: 44880322 Hash: F0BB0DAE8D66931A005398F193841C68 Accuracy: -m0
Conclusion: CDDA 100%
Signature: 17B9DBEF367AE9FB1B8427CCC9844607E9BAECE6
FILE: 06. Faidel & Warmth - Magnitude.flac
Size: 43734412 Hash: BDD87E395814C563038377375CA053F2 Accuracy: -m0
Conclusion: CDDA 100%
Signature: 8064C8073211E7B5ADBB5DFF4011A5A35A93CF76
FILE: 05. Faidel & Warmth - Stray Lights (Ambient Version).flac
Size: 38255741 Hash: D7F8655DBE54FAE630730996CA61902F Accuracy: -m0
Conclusion: CDDA 100%
Signature: EEE756F80F49157A9168006ABB04FA9C9531ADD6
FILE: 04. Faidel & Warmth - Stray Lights.flac
Size: 43638460 Hash: 73FEFCAD505CA3230E8AEFD8EBA0490A Accuracy: -m0
Conclusion: CDDA 100%
Signature: C6CAA01D13B02ADFD7A52F6262D570146FB532DF
FILE: 03. Faidel & Warmth - Zenit.flac
Size: 39786346 Hash: B7D157DD8663E18DEE56B979C7DA6D16 Accuracy: -m0
Conclusion: CDDA 100%
Signature: B9A0C27562DA9F3E6FCF816D5CE76B593B4D5772
FILE: 02. Warmth - Away (Faidel Remix).flac
Size: 47095961 Hash: 892776C254CEB15142B856C3F9E3C04B Accuracy: -m0
Conclusion: CDDA 100%
Signature: 6FDA627C1466943406D6D48DA34959B0FD25D493
FILE: 01. Warmth - Away.flac
Size: 42320884 Hash: 519BE6D5DCBC722C4EFA474113A9705E Accuracy: -m0
Conclusion: CDDA 100%
Signature: 32460EC41523A9AD7C5EA9C021E899B4765B4E59

Год выпуска: 2015
Продолжительность: 00:54:53
Треклист:

01. Fisura (04:30)
02. Vapour (08:10)
03. Reef (09:01)
04. Ash (07:19)
05. Smoke (07:02)
06. Manto (07:17)
07. Bruma (06:07)
08. Redoubt (05:27)

-----------------------

DON'T MODIFY THIS FILE

-----------------------

PERFORMER: auCDtect Task Manager, ver. 1.5.1RC6 build 1.5.1.7
Copyright (c) 2008-2010 y-soft. All rights reserved
http://y-soft.org

ANALYZER: auCDtect: CD records authenticity detector, version 0.8.2
Copyright (c) 2004 Oleg Berngardt. All rights reserved.
Copyright (c) 2004 Alexander Djourik. All rights reserved.

FILE: 08. Redoubt.flac
Size: 31953907 Hash: 63DFEF09BDCD3FD8E66CC073F4693E26 Accuracy: -m0
Conclusion: MPEG 100%
Signature: F4DFA62B548E250615A7C0F68AB666A6DFE3842F
FILE: 07. Bruma.flac
Size: 30625525 Hash: 85A702074F93D5BD1B2D9590D1FBE10A Accuracy: -m0
Conclusion: MPEG 93%
Signature: 7AE5B5C45074447A91C8661AC08AC40E2F1216A8
FILE: 06. Manto.flac
Size: 49391795 Hash: 1D649FF8AFC1E53214904FCD56789729 Accuracy: -m0
Conclusion: CDDA 99%
Signature: 41B777A212DE6F9F8C33816F657F819DD9463446
FILE: 05. Smoke.flac
Size: 36836965 Hash: 554D44960FBE3D84B7DED677766EC7AD Accuracy: -m0
Conclusion: CDDA 99%
Signature: 90707964FC1F0C284F0D9FFC26CA65734B201D28
FILE: 04. Ash.flac
Size: 48719584 Hash: 0F9C16C649F7F31D14B16A046C176FC1 Accuracy: -m0
Conclusion: CDDA 100%
Signature: 75CB3C476A0FFBA0BE20DF8BF9A7F92AB6BCEEA3
FILE: 03. Reef.flac
Size: 58223997 Hash: 70A376F68A7278ACED814D0B7AC8ADAF Accuracy: -m0
Conclusion: CDDA 100%
Signature: 88623139C01AAA207FC12B622552F1B07ACDA1A2
FILE: 02. Vapour.flac
Size: 50584593 Hash: 0985DB8E8A370B2FFFB091AAB016BE12 Accuracy: -m0
Conclusion: CDDA 100%
Signature: C8BF130294E15EE6D226886DED0D506845240F9C
FILE: 01. Fisura.flac
Size: 26067932 Hash: 87C0B1094EA1FBE382E51CF981AFBAA2 Accuracy: -m0
Conclusion: CDDA 100%
Signature: 05FE99FD0A9CE30034F1BF07107CE48673911C3D

Год выпуска: 2016
Продолжительность: 01:07:36
Треклист:

01. Nineteen Eighty (1980) (09:58)
02. Youth (08:34)
03. Essay (08:28)
04. Odessa (06:38)
05. Wave Growth (Album Version) (08:13)
06. Decade (07:21)
07. Insight (09:30)
08. Time As A Reward (Album Version) (08:54)

-----------------------

DON'T MODIFY THIS FILE

-----------------------

PERFORMER: auCDtect Task Manager, ver. 1.5.1RC6 build 1.5.1.7
Copyright (c) 2008-2010 y-soft. All rights reserved
http://y-soft.org

ANALYZER: auCDtect: CD records authenticity detector, version 0.8.2
Copyright (c) 2004 Oleg Berngardt. All rights reserved.
Copyright (c) 2004 Alexander Djourik. All rights reserved.

FILE: 08. Time as a Reward (Album Version).flac
Size: 37673498 Hash: F32DB8485217FBA758B4C49169D86BCE Accuracy: -m0
Conclusion: CDDA 43%
Signature: BAABBD0DCA540BBAAC0766FA853CE0400826018B
FILE: 07. Insight.flac
Size: 40730979 Hash: A4AF21EFAEA01923636C5013BF1A06DB Accuracy: -m0
Conclusion: CDDA 100%
Signature: EF0576B37413EF788C912BF0792880C30383A552
FILE: 06. Decade.flac
Size: 33453974 Hash: 813EB80E5186BDAF80DA1CDEA6705A76 Accuracy: -m0
Conclusion: CDDA 100%
Signature: D8481798A23823068F7123AD9580364522C68820
FILE: 05. Wave Growth (Album Version).flac
Size: 47033548 Hash: A7546392654E5CF8C0226D4F0DD49AA0 Accuracy: -m0
Conclusion: ???
Signature: 97709D7BBFD0F693C0A42B64CC13E2CE198ECE4A
FILE: 04. Odessa.flac
Size: 33796433 Hash: 9E65094461D3F4FE3BC1B620F08E439B Accuracy: -m0
Conclusion: MPEG 89%
Signature: A3E493DFB62821BCF55A193AF984E630EEE440FF
FILE: 03. Essay.flac
Size: 34249366 Hash: 92854F4C610CF261C9870C8E345C1B24 Accuracy: -m0
Conclusion: CDDA 54%
Signature: 9E356224DFE96FD61F4C14B64C20C8D232EF71EE
FILE: 02. Youth.flac
Size: 42606042 Hash: 3EAEBF2F55F7930C862AC381D4DAA027 Accuracy: -m0
Conclusion: CDDA 100%
Signature: B75B5B9272E6BFCA9770F80DA13EED670D8550C5
FILE: 01. Nineteen Eighty (1980).flac
Size: 41989506 Hash: C380D7965CDF7E2C343EE93566C1543C Accuracy: -m0
Conclusion: CDDA 100%
Signature: 4ED90AE12F29925C3AC27B6B665CEB6AF5B2520E

Год выпуска: 2014
Продолжительность: 00:46:01
Треклист:

01. Avalanche (Part 1) (07:40)
02. Avalanche (Part 2) (07:54)
03. Fjord (07:25)
04. Output (07:54)
05. Quanta (07:52)
06. Tsuyu (07:16)

-----------------------

DON'T MODIFY THIS FILE

-----------------------

PERFORMER: auCDtect Task Manager, ver. 1.5.1RC6 build 1.5.1.7
Copyright (c) 2008-2010 y-soft. All rights reserved
http://y-soft.org

ANALYZER: auCDtect: CD records authenticity detector, version 0.8.2
Copyright (c) 2004 Oleg Berngardt. All rights reserved.
Copyright (c) 2004 Alexander Djourik. All rights reserved.

FILE: 06. Tsuyu.flac
Size: 44421592 Hash: BD2FADD45FA587A6D60B657780184EC3 Accuracy: -m0
Conclusion: CDDA 100%
Signature: 8E2C40EB7130FBD4CA77934D4B8F8AB600C5D05E
FILE: 05. Quanta.flac
Size: 45993987 Hash: 6651670A3F45055CAFF1BB715CDC46DC Accuracy: -m0
Conclusion: CDDA 100%
Signature: FF870188E2B68034268442F2BE2369C4F24993CE
FILE: 04. Output.flac
Size: 46713944 Hash: 6D0AFE9E8E59018CD86518D2097AE653 Accuracy: -m0
Conclusion: CDDA 100%
Signature: 9694BF7920FBA6C8B3336A16A617E79341CBA6EC
FILE: 03. Fjord.flac
Size: 42808614 Hash: 3CCD79763D5D43E1CC3A6F96A59A6164 Accuracy: -m0
Conclusion: CDDA 100%
Signature: 33B6E7894D3EBD65B98E76FB892F540AC4853F0A
FILE: 02. Avalanche (Part 2).flac
Size: 47360217 Hash: 85BEC63C6916556EFB1C0DE020049978 Accuracy: -m0
Conclusion: CDDA 100%
Signature: C639BBEA510742C9195E8167882A027E0CED75CC
FILE: 01. Avalanche (Part 1).flac
Size: 44111117 Hash: F4343378937BDFD4B3C9DB48512C43D9 Accuracy: -m0
Conclusion: CDDA 100%
Signature: 0DD5106F2C6D15F8F31262E6207E235D3EB986FE

Год выпуска: 2014
Продолжительность: 00:35:37
Треклист:

01. Dopamine (10:12)
02. A Dusty Place In The Head (11:25)
03. Two Parts Of The Same Thought (10:15)
04. Dopamine (Ambient Reprise) (03:45)

-----------------------

DON'T MODIFY THIS FILE

-----------------------

PERFORMER: auCDtect Task Manager, ver. 1.5.1RC6 build 1.5.1.7
Copyright (c) 2008-2010 y-soft. All rights reserved
http://y-soft.org

ANALYZER: auCDtect: CD records authenticity detector, version 0.8.2
Copyright (c) 2004 Oleg Berngardt. All rights reserved.
Copyright (c) 2004 Alexander Djourik. All rights reserved.

FILE: 04. Dopamine (Ambient Reprise).flac
Size: 19257334 Hash: 419EA5C703BECE9BB536E62F99E136BC Accuracy: -m0
Conclusion: CDDA 100%
Signature: 3A03F5C9D71E9CF6ED893C416A13E18E96178E20
FILE: 03. Two Parts Of The Same Thought.flac
Size: 52734021 Hash: 3D39640A2EF934D10EF25ADDD6C1D947 Accuracy: -m0
Conclusion: CDDA 100%
Signature: 1A3C5F6FD080D3F15A758B68DA1B21BBA239E61B
FILE: 02. A Dusty Place In The Head.flac
Size: 58447657 Hash: 44E8B2C40CA8E54AD87BA744088D6320 Accuracy: -m0
Conclusion: CDDA 100%
Signature: 45C4DD64C50768353AD0D95ADF69C81F275BE700
FILE: 01. Dopamine.flac
Size: 54594041 Hash: 88EE613961E263ED71DBAD3A353731EA Accuracy: -m0
Conclusion: CDDA 100%
Signature: D78DD12A8AA6BEE22C624C19A800D21958BFCA98

Год выпуска: 2014
Продолжительность: 00:32:31
Треклист:

01. Fading Into The Light (06:57)
02. Fading Into The Light (Dub Edit) (06:04)
03. Full Circle (07:23)
04. The Dusk (05:37)
05. The Dusk (IOIO Remix) (06:30)

-----------------------

DON'T MODIFY THIS FILE

-----------------------

PERFORMER: auCDtect Task Manager, ver. 1.5.1RC6 build 1.5.1.7
Copyright (c) 2008-2010 y-soft. All rights reserved
http://y-soft.org

ANALYZER: auCDtect: CD records authenticity detector, version 0.8.2
Copyright (c) 2004 Oleg Berngardt. All rights reserved.
Copyright (c) 2004 Alexander Djourik. All rights reserved.

FILE: 05. The Dusk (IOIO Remix).flac
Size: 39856113 Hash: 17F53C5F46834718D3076BC975D911EE Accuracy: -m0
Conclusion: CDDA 99%
Signature: 7A476D6B46ECD3951AB4E5180FB7F404F69C5AC5
FILE: 04. The Dusk.flac
Size: 29301589 Hash: 832B7CBC75A71A3698F388B92223DB03 Accuracy: -m0
Conclusion: CDDA 100%
Signature: 8B218205279763383841861E3BF7C4EDB0F3A39C
FILE: 03. Full Circle.flac
Size: 41012586 Hash: 64DFAABB8BE9D1BB68512AD2B83D5CCC Accuracy: -m0
Conclusion: CDDA 100%
Signature: 987EC125BAF4E15533E851A7C01D94C65FF8B7C0
FILE: 02. Fading Into The Light (Dub Edit).flac
Size: 31030589 Hash: CA42B4BCC26004C3C57F4ECA12D13623 Accuracy: -m0
Conclusion: CDDA 100%
Signature: FEBA678957883DE5F5F9A961B2061588D7B53F08
FILE: 01. Fading Into The Light.flac
Size: 37618185 Hash: 401A8BB0EB263B05F81716DDE210E6CC Accuracy: -m0
Conclusion: CDDA 100%
Signature: 93E9AB7BDB34B102194ABFC5FBA335DC5ED59561

Год выпуска: 2014
Продолжительность: 00:21:52
Треклист:

01. Tropics (07:40)
02. Night Dive (07:28)
03. Warm Rain (06:44)

foobar2000 1.1 / Dynamic Range Meter 1.1.1
log date: 2016-11-12 17:56:55

--------------------------------------------------------------------------------
Analyzed: Warmth / Tropics EP
--------------------------------------------------------------------------------

DR Peak RMS Duration Track
--------------------------------------------------------------------------------
DR8 -0.33 dB -9.83 dB 7:40 ?-Tropics
DR7 -0.29 dB -9.03 dB 7:28 ?-Night Dive
DR6 -0.31 dB -7.94 dB 6:44 ?-Warm Rain
--------------------------------------------------------------------------------

Number of tracks: 3
Official DR value: DR7

Samplerate: 44100 Hz
Channels: 2
Bits per sample: 24
Bitrate: 1395 kbps
Codec: FLAC
================================================================================
Год выпуска: 2014
Продолжительность: 00:14:54
Треклист:

01. Aogashima (07:10)
02. Underwater (07:44)

-----------------------

DON'T MODIFY THIS FILE

-----------------------

PERFORMER: auCDtect Task Manager, ver. 1.5.1RC6 build 1.5.1.7
Copyright (c) 2008-2010 y-soft. All rights reserved
http://y-soft.org

ANALYZER: auCDtect: CD records authenticity detector, version 0.8.2
Copyright (c) 2004 Oleg Berngardt. All rights reserved.
Copyright (c) 2004 Alexander Djourik. All rights reserved.

FILE: 02. Underwater.flac
Size: 49903077 Hash: 36CB5965EBE8FA9F030F294E0F8FADB7 Accuracy: -m0
Conclusion: CDDA 100%
Signature: 0C6978E1CC0CA39E2E30BBB553228A380FF981C5
FILE: 01. Aogashima.flac
Size: 40085440 Hash: F802E1E70D3EC0DBFFA754680F7DA2CE Accuracy: -m0
Conclusion: CDDA 100%
Signature: B6FFBCA37BC108379FAE4EEFC223145D437325BE

Год выпуска: 2015
Продолжительность: 00:40:33
Треклист:

01. Elsewhere (09:27)
02. Drift (10:27)
03. Inland (10:13)
04. Drift (Advanced Dreams Remix) (10:26)

-----------------------

DON'T MODIFY THIS FILE

-----------------------

PERFORMER: auCDtect Task Manager, ver. 1.5.1RC6 build 1.5.1.7
Copyright (c) 2008-2010 y-soft. All rights reserved
http://y-soft.org

ANALYZER: auCDtect: CD records authenticity detector, version 0.8.2
Copyright (c) 2004 Oleg Berngardt. All rights reserved.
Copyright (c) 2004 Alexander Djourik. All rights reserved.

FILE: 04. Drift (Advanced Dreams Remix).flac
Size: 52178346 Hash: AF5781479AC4687E36E21689B4917236 Accuracy: -m0
Conclusion: CDDA 99%
Signature: CC2A9CF5933E917946444EBD12AF335BB1238938
FILE: 03. Inland.flac
Size: 44727649 Hash: D4E99BB51EA83BAE73CE30626A4BA930 Accuracy: -m0
Conclusion: CDDA 99%
Signature: 124633E1C7F4A4EBDBED321D115D5C68F8EE7809
FILE: 02. Drift.flac
Size: 51694301 Hash: D0DB5667BA1B341A509C355248839A19 Accuracy: -m0
Conclusion: CDDA 100%
Signature: 7E7B895B7761E25826AFFDDE2D657FCB80D10EC3
FILE: 01. Elsewhere.flac
Size: 49894469 Hash: 9356198504CA915D00CB02608119462F Accuracy: -m0
Conclusion: CDDA 85%
Signature: D18F08FF47A36B8BC8D7232FD6805C060BC23CA3

Год выпуска: 2015
Продолжительность: 00:44:51
Треклист:

01. Abrupt (Original Mix) (08:50)
02. Abrupt (Desove Dub Rebuild) (07:02)
03. Northbound (Original Mix) (10:51)
04. Northbound (Aspect. Dub) (06:23)
05. Height (Original Mix) (11:45)

-----------------------

DON'T MODIFY THIS FILE

-----------------------

PERFORMER: auCDtect Task Manager, ver. 1.5.1RC6 build 1.5.1.7
Copyright (c) 2008-2010 y-soft. All rights reserved
http://y-soft.org

ANALYZER: auCDtect: CD records authenticity detector, version 0.8.2
Copyright (c) 2004 Oleg Berngardt. All rights reserved.
Copyright (c) 2004 Alexander Djourik. All rights reserved.

FILE: 05. Height (Original Mix).flac
Size: 68030571 Hash: EEA462619D3540ABC617F715E3AD84C4 Accuracy: -m0
Conclusion: MPEG 95%
Signature: 49C790923A614443A6928F0C78186F24AF6409A8
FILE: 04. Northbound (Aspect. Dub).flac
Size: 39029429 Hash: 5E16D58D27C4E5E2A5010495FBB41ED8 Accuracy: -m0
Conclusion: MPEG 95%
Signature: 90D8DDB9785B1EB1D1F53A6382F9D70C89765383
FILE: 03. Northbound (Original Mix).flac
Size: 57316033 Hash: 673903AC6D8F4F4772EB556B66AA2D3D Accuracy: -m0
Conclusion: CDDA 100%
Signature: 38FD5A26625B022FFB6E4C7E0CF27B1D5E44797C
FILE: 02. Abrupt (Desove Dub Rebuild).flac
Size: 45943852 Hash: 655045B2BF5BF10DFDF88FF4649A2841 Accuracy: -m0
Conclusion: CDDA 100%
Signature: 3161396BCB8251013C3E2ABCF4C9BECED737C459
FILE: 01. Abrupt (Original Mix).flac
Size: 50108006 Hash: 234CA6E5E9F9283053E4DC566DDFF9C4 Accuracy: -m0
Conclusion: CDDA 100%
Signature: E0F80E67AEF5B719F4A9BD67AAD60A27060D44E3

Год выпуска: 2015
Продолжительность: 00:48:35
Треклист:

01. Des De La Llum (10:37)
02. Drawing Circles (07:08)
03. Luftslott (07:57)
04. Sammanvaxta Toner (07:45)
05. Uncertain Horizon (Ambient Version) (06:52)
06. Uncertain Horizon (08:16)

-----------------------

DON'T MODIFY THIS FILE

-----------------------

PERFORMER: auCDtect Task Manager, ver. 1.5.1RC6 build 1.5.1.7
Copyright (c) 2008-2010 y-soft. All rights reserved
http://y-soft.org

ANALYZER: auCDtect: CD records authenticity detector, version 0.8.2
Copyright (c) 2004 Oleg Berngardt. All rights reserved.
Copyright (c) 2004 Alexander Djourik. All rights reserved.

FILE: 06. Uncertain Horizon.flac
Size: 46799909 Hash: 79B6C93250EF284FA5CC75D07B747803 Accuracy: -m0
Conclusion: CDDA 100%
Signature: E03BD8ECA4A8C747848F265698938FE4830A1FC7
FILE: 05. Uncertain Horizon (Ambient Version).flac
Size: 34467370 Hash: E0C7156D2F0075F0DC1ED80946E75103 Accuracy: -m0
Conclusion: MPEG 89%
Signature: 945458F7BF88664B9111641955BB6480C8FED30B
FILE: 04. Sammanväxta Toner.flac
Size: 37777394 Hash: 3E214E3A46CF014C71BF8654EAE0CF87 Accuracy: -m0
Conclusion: CDDA 100%
Signature: 59C5122F16E61793DD46D568E14BD1D5259E595E
FILE: 03. Luftslott.flac
Size: 37100488 Hash: 7974092C1D31310DD5F6CC8D43BD2CFE Accuracy: -m0
Conclusion: CDDA 100%
Signature: 113D1EDB79C9A63CD66BECB72946483C05275C80
FILE: 02. Drawing Circles.flac
Size: 34647648 Hash: FC45B3A7D3D93394600DB021AAD27DDB Accuracy: -m0
Conclusion: CDDA 99%
Signature: 0A736E0CC4222677F9B3A79ECCF361A4C7AE4BFF
FILE: 01. Des De La Llum.flac
Size: 46392001 Hash: 0CDE3FC3DFB2C930873456C477905986 Accuracy: -m0
Conclusion: MPEG 90%
Signature: CC083AF4E1C9A6151323B553BF01078B3FCADD07

Год выпуска: 2015
Продолжительность: 00:17:03
Треклист:

01. Shoreline (09:34)
02. Shoreline (Alternative Mix) (07:29)

foobar2000 1.1 / Dynamic Range Meter 1.1.1
log date: 2016-11-12 17:56:07

--------------------------------------------------------------------------------
Analyzed: Warmth / Shoreline
--------------------------------------------------------------------------------

DR Peak RMS Duration Track
--------------------------------------------------------------------------------
DR6 -0.20 dB -8.42 dB 9:34 ?-Shoreline
DR9 -0.20 dB -13.22 dB 7:29 ?-Shoreline (Alternative Mix)
--------------------------------------------------------------------------------

Number of tracks: 2
Official DR value: DR8

Samplerate: 44100 Hz
Channels: 2
Bits per sample: 24
Bitrate: 1449 kbps
Codec: FLAC
================================================================================

[NNMClub.to]_Warmth FLAC.torrent
 Торрент:   Зарегистрирован
 
Примагнититься
Free Leech
Зарегистрируйтесь и скачайте торрент!
21,2 KB
 Зарегистрирован:   15 Ноя 2016 12:07:56
 Размер:   2,64 GB  (
 Рейтинг:    (Голосов: 7)
 Поблагодарили:   27
 Проверка:   Оформление проверено модератором 15 Ноя 2016 12:09:04
Как cкачать  ·  Как раздать  ·  Правильно оформить  ·  Поднять ратио!  
Показать сообщения:   
Начать новую тему   Ответить на тему    Торрент-трекер NNM-Club -> Electronic -> House, Techno, Electro, Minimal (Lossless) Часовой пояс: GMT + 3
Страница 1 из 1