Интеллигентный торрент-трекер
canvas not supported
Нас вместе: 4 108 627

Большой и добрый великан / The BFG (2016) BDRip [H.264/1080p] [EN]


 
 
RSS
Начать новую тему   Ответить на тему    Торрент-трекер NNM-Club -> Видео -> Зарубежные Фильмы для детей
Автор Сообщение
smaster67 ®
Модератор Видео
Покровитель талантов Uploader 300+
Стаж: 7 лет 5 мес.
Сообщений: 6265
Ratio: 180,481
Поблагодарили: 174083
100%
Большой и добрый великан / The BFG (2016) BDRip [H.264/1080p] [EN]

Производство: Великобритания, Канада, США
Жанр: фэнтези, приключения, семейный

Режиссер: Стивен Спилберг
Актеры: Марк Райлэнс, Руби Барнхилл, Пенелопа Уилтон, Джемейн Клемент, Ребекка Холл, Рейф Сполл, Билл Хейдер, Оулавюр Дарри Оулафссон, Адам Годли, Майкл Адамуэйт, Дэниэл Бэйкон, Джонатан Холмс

Описание:
В центре истории девочка по имени Софи, которая не смогла заснуть до полуночи и в окошко увидела огромного великана, который подходил к соседним домам и начинал дуть в окна спален. В полном соответствии со старинными поверьями и детскими страшилками, великан увидел Софи и унес к себе домой, в страну великанов.
Как оказалось, он в этой самой стране был единственным добрым великаном: действуя в обстановке строжайшей секретности, он коллекционировал хорошие сны, которые по ночам раздавал детям. Уши у него устроены таким образом, что он слышит, что и о чем снится ребятам, и никогда не позволяет им видеть кошмары.



Продолжительность: 01:57:06
Качество видео: BDRip 1080p
Перевод: Отсутствует
Язык озвучки: Английский

Видео: AVC, 1920x808 (2.40:1), 8714 kbps, 23,976 fps, 0,234 bpp
Аудио: английский / AC3 / 5.1 / 48 kHz / 640 kbps /
Код: выделить все
General
Unique ID                           The.BFG.2016.1080p.mkv
Format                                   : Matroska
Format version                           : Version 4 / Version 2
File size                                : 7.65 GiB
Duration                                 : 1 h 57 min
Overall bit rate                         : 9 352 kb/s
Encoded date                             : UTC 2016-11-15 20:08:17
Writing application                      : mkvmerge v8.3.0 ('Over the Horizon') 64bit
Writing library                          : libebml v1.3.1 + libmatroska v1.4.2

Video
ID                                       : 1
Format                                   : AVC
Format/Info                              : Advanced Video Codec
Format profile                           : High@L4.1
Format settings, CABAC                   : Yes
Format settings, ReFrames                : 5 frames
Codec ID                                 : V_MPEG4/ISO/AVC
Duration                                 : 1 h 57 min
Bit rate                                 : 8 714 kb/s
Width                                    : 1 920 pixels
Height                                   : 808 pixels
Display aspect ratio                     : 2.40:1
Frame rate mode                          : Constant
Frame rate                               : 23.976 FPS
Color space                              : YUV
Chroma subsampling                       : 4:2:0
Bit depth                                : 8 bits
Scan type                                : Progressive
Bits/(Pixel*Frame)                       : 0.234
Stream size                              : 7.12 GiB (93%)
Writing library                          : x264 core 148 r2705 3f5ed56
Encoding settings                        : cabac=1 / ref=5 / deblock=1:0:0 / analyse=0x3:0x133 / me=umh / subme=7 / psy=1 / psy_rd=1.00:0.00 / mixed_ref=1 / me_range=16 / chroma_me=1 / trellis=1 / 8x8dct=1 / cqm=0 / deadzone=21,11 / fast_pskip=0 / chroma_qp_offset=-2 / threads=25 / lookahead_threads=4 / sliced_threads=0 / nr=0 / decimate=1 / interlaced=0 / bluray_compat=0 / constrained_intra=0 / bframes=3 / b_pyramid=2 / b_adapt=1 / b_bias=0 / direct=1 / weightb=1 / open_gop=0 / weightp=2 / keyint=250 / keyint_min=23 / scenecut=40 / intra_refresh=0 / rc_lookahead=40 / rc=2pass / mbtree=1 / bitrate=8714 / ratetol=1.0 / qcomp=0.60 / qpmin=0 / qpmax=69 / qpstep=4 / cplxblur=20.0 / qblur=0.5 / ip_ratio=1.40 / aq=1:1.00
Language                                 : English
Default                                  : Yes
Forced                                   : No

Audio
ID                                       : 2
Format                                   : AC-3
Format/Info                              : Audio Coding 3
Mode extension                           : CM (complete main)
Format settings, Endianness              : Big
Codec ID                                 : A_AC3
Duration                                 : 1 h 57 min
Bit rate mode                            : Constant
Bit rate                                 : 640 kb/s
Channel(s)                               : 6 channels
Channel positions                        : Front: L C R, Side: L R, LFE
Sampling rate                            : 48.0 kHz
Frame rate                               : 31.250 FPS (1536 spf)
Compression mode                         : Lossy
Stream size                              : 536 MiB (7%)
Language                                 : English
Default                                  : Yes
Forced                                   : No

Menu
00:00:00.000                             : en:00:00:00.000
00:07:24.694                             : en:00:07:24.694
00:11:54.464                             : en:00:11:54.464
00:18:54.842                             : en:00:18:54.842
00:23:15.311                             : en:00:23:15.311
00:25:03.252                             : en:00:25:03.252
00:28:11.648                             : en:00:28:11.648
00:36:47.122                             : en:00:36:47.122
00:41:24.107                             : en:00:41:24.107
00:45:48.788                             : en:00:45:48.788
00:52:01.702                             : en:00:52:01.702
00:57:45.837                             : en:00:57:45.837
01:03:01.528                             : en:01:03:01.528
01:11:32.663                             : en:01:11:32.663
01:15:52.089                             : en:01:15:52.089
01:25:57.152                             : en:01:25:57.152
01:36:18.606                             : en:01:36:18.606
01:41:29.375                             : en:01:41:29.375
01:46:05.150                             : en:01:46:05.150
01:48:57.197                             : en:01:48:57.197

Скриншоты:



Все одноименные релизы в Клубе

Время раздачи: с 13:00 до 23:00
[NNMClub.to]_The.BFG.2016.1080p.mkv.torrent
 Торрент: Золотая раздача  Зарегистрирован
 
Примагнититься
Free Leech
Зарегистрируйтесь и скачайте торрент!
38,4 KB
 Зарегистрирован:   16 Ноя 2016 10:42:56
 Размер:   7,65 GB  (
 Рейтинг:    (Голосов: 8)
 Поблагодарили:   31
 Проверка:   Оформление проверено модератором 16 Ноя 2016 10:43:27
Как cкачать  ·  Как раздать  ·  Правильно оформить  ·  Поднять ратио!  
Топик был перенесен из форума Фильмы в оригинале (HD) в форум Зарубежные Фильмы для детей



Исправил релиз - напиши ЛС lexandros, дав ссылку на релиз.
Если нет ответа 24 часа - нажми на кнопку "Обратить внимание модераторов".
dzhopendal
Стаж: 3 года 10 мес.
Сообщений: 41
Ratio: 11,962
27.67%
Это пушка такая была в Quake 3 Arena BFG - Биг Факинг Ганн .....
и в фильме "Дум", там она называлась на русский манер - Большое финишное глушило....
Показать сообщения:   
Начать новую тему   Ответить на тему    Торрент-трекер NNM-Club -> Видео -> Зарубежные Фильмы для детей Часовой пояс: GMT + 3
Страница 1 из 1