Интеллигентный торрент-трекер
canvas not supported
Нас вместе: 4 115 455

Боксер-марионетка / Cardboard Boxer (2016) BDRip [H.264/720p] [EN / EN Sub]


 
 
RSS
Начать новую тему   Ответить на тему    Торрент-трекер NNM-Club -> Зарубежное кино -> Фильмы в оригинале (HD)
Автор Сообщение
smaster67 ®
Модератор Видео
Покровитель талантов Uploader 300+
Стаж: 7 лет 5 мес.
Сообщений: 6275
Ratio: 181,031
Поблагодарили: 174692
100%
Боксер-марионетка / Cardboard Boxer (2016) BDRip [H.264/720p] [EN / EN Sub]

Производство: США
Жанр: драма

Режиссер: Кнейт Гуолтни
Актеры: Томас Хейден Чёрч, Терренс Ховард, Бойд Холбрук, Риз Уэйкфилд, Марло Томас, Дэвид Генри, Мейси Грэй, Жослин Андерсон, Сет Бэйли, Оскар Бест, Джоанна Э. Брэдди

Описание:
Фильм «Боксер-марионетка» (Cardboard Boxer), созданный Кнейтом Гуолтни при участии актеров Томаса Хэйдена Черча и Терренса Ховарда, рассказывает историю бездомного, находящего свое призвание в том, чтобы начать борьбу с группой богатых отпрысков известных семейств, использующих обездоленных людей в своих целях.
Но такое положение вещей не устраивает новоявленных «хозяев жизни». Впрочем, тот, кому уже нечего терять, вряд ли испугается мести со стороны зарвавшихся юнцов. Герой решает идти до конца, и на этом пути у него неожиданно обнаруживаются единомышленники, готовые встать плечом к плечу ради достижения общей цели.



Продолжительность: 01:28:39
Качество видео: BDRip 720p
Перевод: Отсутствует
Язык озвучки: Английский
Язык субтитров: английский
Вид субтитров: Вшитые

Видео: AVC, 1280x672 (1.905), 5550 kbps, 23,976 fps, 0,269 bpp
Аудио: английский / DTS / 5.1 / 48 kHz / 1509 kbps / 24 bit
Код: выделить все
General
Unique ID
Complete name                           Cardboard.Boxer.2016.720p.mkv
Format                                   : Matroska
Format version                           : Version 4 / Version 2
File size                                : 4.37 GiB
Duration                                 : 1 h 28 min
Overall bit rate                         : 7 059 kb/s
Encoded date                             : UTC 2010-02-22 21:41:29
Writing application                      : no_variable_data
Writing library                          : no_variable_data

Video
ID                                       : 1
Format                                   : AVC
Format/Info                              : Advanced Video Codec
Format profile                           : High@L4.1
Format settings, CABAC                   : Yes
Format settings, ReFrames                : 5 frames
Codec ID                                 : V_MPEG4/ISO/AVC
Duration                                 : 1 h 28 min
Bit rate                                 : 5 550 kb/s
Width                                    : 1 280 pixels
Height                                   : 672 pixels
Display aspect ratio                     : 1.905
Frame rate mode                          : Constant
Frame rate                               : 23.976 (24000/1001) FPS
Color space                              : YUV
Chroma subsampling                       : 4:2:0
Bit depth                                : 8 bits
Scan type                                : Progressive
Bits/(Pixel*Frame)                       : 0.269
Stream size                              : 3.35 GiB (77%)
Writing library                          : x264 core 148 r2705 3f5ed56
Encoding settings                        : cabac=1 / ref=5 / deblock=1:-3:-3 / analyse=0x3:0x113 / me=umh / subme=8 / psy=1 / psy_rd=1.00:0.00 / mixed_ref=1 / me_range=24 / chroma_me=1 / trellis=1 / 8x8dct=1 / cqm=0 / deadzone=21,11 / fast_pskip=1 / chroma_qp_offset=-2 / threads=21 / lookahead_threads=3 / sliced_threads=0 / nr=0 / decimate=1 / interlaced=0 / bluray_compat=0 / constrained_intra=0 / bframes=3 / b_pyramid=2 / b_adapt=2 / b_bias=0 / direct=3 / weightb=1 / open_gop=0 / weightp=2 / keyint=240 / keyint_min=24 / scenecut=40 / intra_refresh=0 / rc_lookahead=50 / rc=2pass / mbtree=1 / bitrate=5550 / ratetol=1.0 / qcomp=0.60 / qpmin=0 / qpmax=69 / qpstep=4 / cplxblur=20.0 / qblur=0.5 / ip_ratio=1.40 / aq=3:0.80
Default                                  : Yes
Forced                                   : No
Statistics Tags Issue                    : no_variable_data 1970-01-01 00:00:00 / no_variable_data 2010-02-22 21:41:29
FromStats_BitRate                        : 5547286
FromStats_Duration                       : 01:28:39.439000000
FromStats_FrameCount                     : 127539
FromStats_StreamSize                     : 3688556316

Audio
ID                                       : 2
Format                                   : DTS
Format/Info                              : Digital Theater Systems
Mode                                     : 16
Format settings, Endianness              : Big
Codec ID                                 : A_DTS
Duration                                 : 1 h 28 min
Bit rate mode                            : Constant
Bit rate                                 : 1 509 kb/s
Channel(s)                               : 6 channels
Channel positions                        : Front: L C R, Side: L R, LFE
Sampling rate                            : 48.0 kHz
Frame rate                               : 93.750 FPS (512 spf)
Bit depth                                : 24 bits
Compression mode                         : Lossy
Stream size                              : 957 MiB (21%)
Language                                 : English
Default                                  : Yes
Forced                                   : No
Statistics Tags Issue                    : no_variable_data 1970-01-01 00:00:00 / no_variable_data 2010-02-22 21:41:29
FromStats_BitRate                        : 1508999
FromStats_Duration                       : 01:28:39.446000000
FromStats_FrameCount                     : 498698
FromStats_StreamSize                     : 1003380376

Text
ID                                       : 3
Format                                   : UTF-8
Codec ID                                 : S_TEXT/UTF8
Codec ID/Info                            : UTF-8 Plain Text
Language                                 : English
Default                                  : No
Forced                                   : No
Statistics Tags Issue                    : no_variable_data 1970-01-01 00:00:00 / no_variable_data 2010-02-22 21:41:29
FromStats_BitRate                        : 45
FromStats_Duration                       : 01:25:32.586000000
FromStats_FrameCount                     : 940
FromStats_StreamSize                     : 29067

Menu
00:00:00.000                             : en:00:00:00.000
00:09:18.516                             : en:00:09:18.516
00:17:46.983                             : en:00:17:46.983
00:24:05.527                             : en:00:24:05.527
00:34:31.319                             : en:00:34:31.319
00:45:44.367                             : en:00:45:44.367
00:56:17.749                             : en:00:56:17.749
01:04:51.930                             : en:01:04:51.930
01:11:18.191                             : en:01:11:18.191
01:17:30.688                             : en:01:17:30.688
01:25:40.177                             : en:01:25:40.177

Скриншоты:



Все одноименные релизы в Клубе

Время раздачи: с 13:00 до 23:00
[NNMClub.to]_Cardboard.Boxer.2016.720p.mkv.torrent
 Торрент: Серебряная раздча  Зарегистрирован
 
Примагнититься
Free Leech
Зарегистрируйтесь и скачайте торрент!
22,1 KB
 Зарегистрирован:   16 Ноя 2016 14:05:40
 Размер:   4,37 GB  (
 Рейтинг:    (Голосов: 5)
 Поблагодарили:   44
 Проверка:   Оформление проверено модератором 16 Ноя 2016 14:06:00
Как cкачать  ·  Как раздать  ·  Правильно оформить  ·  Поднять ратио!  
PsyHome
Стаж: 2 года 8 мес.
Сообщений: 173
Ratio: 47,389
100%
russia.gif
Судя по трейлеру, хороший, добрый фильм. Подождём перевода.
Canquote
Стаж: 3 года 10 мес.
Сообщений: 21
Ratio: 3,788
5.79%
Это уже по моему 5 фильм за этот год про боксера
Показать сообщения:   
Начать новую тему   Ответить на тему    Торрент-трекер NNM-Club -> Зарубежное кино -> Фильмы в оригинале (HD) Часовой пояс: GMT + 3
Страница 1 из 1