Интеллигентный торрент-трекер
canvas not supported
Нас вместе: 4 103 999

Kattoo - Discography 5 Releases (2004-2013) Hymen Records, Jungle.clan.ag [FLAC|Lossless|tracks+.cue, tracks] <IDM, Leftfield, Modern Classical, Ambient, Breaks>


 
 
RSS
Начать новую тему   Ответить на тему    Торрент-трекер NNM-Club -> Electronic -> IDM (Lossless)
Автор Сообщение
vilator ®
Модератор Музыки
RG Музыки
 
Стаж: 7 лет 7 мес.
Сообщений: 5412
Ratio: 117,583
Поблагодарили: 104009
100%
Откуда: Minsk
pirates.png


Фолькер Каль (Volker Kahl) - немецкий (Йена, Германия) электронный музыкант, известный по дуэту Beefcake, с 2004 года кроме своего имени записывающийся и выступающий под псевдонимом Kattoo. Его первая работа Places под этим именем выпущена на лейбле Hymen (Hymen Records) как новая творческая концепция музыканта - поворот в другую сторону от творчества Beefcake, почти полная смена всего звучания, использование нехарактерных инструментов в своих композициях.
С 2004 по 2011 год Фолькер выпустил под новым псевдонимом 4 альбома, и разместил их все на своем сайте для загрузки за пожертвование любого размера.

Жанр: IDM, Downtempo, Leftfield, Modern Classical, Ambient, Experimental, Breaks • Страна: Germany • Год издания: 2004-2013 • Тип издания: CD, WEB
Аудиокодек: FLAC (*.flac) • Тип рипа: tracks • Продолжительность: 04:22:14 • Источник: What • Наличие сканов: да
Треклист:
Год выпуска: 2004
Продолжительность: 01:03:38
Треклист:

01. Place1 (05:15)
02. Place2 (04:32)
03. Place3 (05:59)
04. Place4 (05:12)
05. Place5 (04:52)
06. Place6 (06:24)
07. Place7 (03:35)
08. Place8 (04:30)
09. Place9 (06:01)
10. Place10 (04:47)
11. Place11 (07:45)
12. Re-Place7 (Rmx By Flaque) (04:46)

Exact Audio Copy V0.99 prebeta 4 from 23. January 2008

EAC extraction logfile from 27. July 2009, 12:13

Kattoo / Places

Used drive : Optiarc DVD RW AD-7203S Adapter: 1 ID: 0

Read mode : Secure
Utilize accurate stream : Yes
Defeat audio cache : Yes
Make use of C2 pointers : No

Read offset correction : 48
Overread into Lead-In and Lead-Out : No
Fill up missing offset samples with silence : Yes
Delete leading and trailing silent blocks : No
Null samples used in CRC calculations : Yes
Used interface : Installed external ASPI interface
Gap handling : Appended to previous track

Used output format : User Defined Encoder
Selected bitrate : 896 kBit/s
Quality : High
Add ID3 tag : No
Command line compressor : C:\Program Files\FLAC\flac.exe
Additional command line options : -V -8 -T "artist=%a" -T "title=%t" -T "album=%g" -T "date=%y" -T "tracknumber=%n" -T "genre=%m" %s

TOC of the extracted CD

Track | Start | Length | Start sector | End sector
---------------------------------------------------------
1 | 0:00.00 | 5:15.03 | 0 | 23627
2 | 5:15.03 | 4:32.00 | 23628 | 44027
3 | 9:47.03 | 5:59.13 | 44028 | 70965
4 | 15:46.16 | 5:12.00 | 70966 | 94365
5 | 20:58.16 | 4:51.64 | 94366 | 116254
6 | 25:50.05 | 6:23.50 | 116255 | 145029
7 | 32:13.55 | 3:34.45 | 145030 | 161124
8 | 35:48.25 | 4:30.16 | 161125 | 181390
9 | 40:18.41 | 6:00.42 | 181391 | 208432
10 | 46:19.08 | 4:47.23 | 208433 | 229980
11 | 51:06.31 | 7:44.52 | 229981 | 264832
12 | 58:51.08 | 4:46.22 | 264833 | 286304
13 | 66:09.30 | 12:29.13 | 297705 | 353892

Track 1

Filename L:\lossless\my CD\_Electronic\Kattoo - Places (2004)\01. Kattoo - Place1.wav

Pre-gap length 0:00:02.00

Peak level 99.9 %
Track quality 100.0 %
Test CRC AE073CF1
Copy CRC AE073CF1
Accurately ripped (confidence 3) [7DC773FF]
Copy OK

Track 2

Filename L:\lossless\my CD\_Electronic\Kattoo - Places (2004)\02. Kattoo - Place2.wav

Peak level 100.0 %
Track quality 100.0 %
Test CRC 64B1E3D7
Copy CRC 64B1E3D7
Accurately ripped (confidence 3) [C27D3F92]
Copy OK

Track 3

Filename L:\lossless\my CD\_Electronic\Kattoo - Places (2004)\03. Kattoo - Place3.wav

Peak level 100.0 %
Track quality 100.0 %
Test CRC B4105AAF
Copy CRC B4105AAF
Accurately ripped (confidence 3) [171158AD]
Copy OK

Track 4

Filename L:\lossless\my CD\_Electronic\Kattoo - Places (2004)\04. Kattoo - Place4.wav

Peak level 100.0 %
Track quality 100.0 %
Test CRC 0B7F3D83
Copy CRC 0B7F3D83
Accurately ripped (confidence 3) [55786487]
Copy OK

Track 5

Filename L:\lossless\my CD\_Electronic\Kattoo - Places (2004)\05. Kattoo - Place5.wav

Peak level 100.0 %
Track quality 100.0 %
Test CRC B6B32294
Copy CRC B6B32294
Accurately ripped (confidence 3) [A381DC7C]
Copy OK

Track 6

Filename L:\lossless\my CD\_Electronic\Kattoo - Places (2004)\06. Kattoo - Place6.wav

Peak level 100.0 %
Track quality 100.0 %
Test CRC A0E69616
Copy CRC A0E69616
Accurately ripped (confidence 3) [DB3B9BBA]
Copy OK

Track 7

Filename L:\lossless\my CD\_Electronic\Kattoo - Places (2004)\07. Kattoo - Place7.wav

Peak level 100.0 %
Track quality 100.0 %
Test CRC 49F806D4
Copy CRC 49F806D4
Accurately ripped (confidence 3) [203FCFF4]
Copy OK

Track 8

Filename L:\lossless\my CD\_Electronic\Kattoo - Places (2004)\08. Kattoo - Place8.wav

Peak level 100.0 %
Track quality 100.0 %
Test CRC E7AABEF2
Copy CRC E7AABEF2
Accurately ripped (confidence 3) [1BCA40CB]
Copy OK

Track 9

Filename L:\lossless\my CD\_Electronic\Kattoo - Places (2004)\09. Kattoo - Place9.wav

Peak level 100.0 %
Track quality 100.0 %
Test CRC 27373A2D
Copy CRC 27373A2D
Accurately ripped (confidence 3) [981454A7]
Copy OK

Track 10

Filename L:\lossless\my CD\_Electronic\Kattoo - Places (2004)\10. Kattoo - Place10.wav

Peak level 100.0 %
Track quality 100.0 %
Test CRC F6BEBAC9
Copy CRC F6BEBAC9
Accurately ripped (confidence 3) [D2DA756D]
Copy OK

Track 11

Filename L:\lossless\my CD\_Electronic\Kattoo - Places (2004)\11. Kattoo - Place11.wav

Peak level 100.0 %
Track quality 100.0 %
Test CRC D96B9AE2
Copy CRC D96B9AE2
Accurately ripped (confidence 3) [7E618341]
Copy OK

Track 12

Filename L:\lossless\my CD\_Electronic\Kattoo - Places (2004)\12. Kattoo - Re-Place7 (RMX By Flaque).wav

Peak level 98.8 %
Track quality 100.0 %
Test CRC 80B58472
Copy CRC 80B58472
Accurately ripped (confidence 3) [A48C8DDB]
Copy OK

All tracks accurately ripped

No errors occurred

End of status report


REM GENRE IDM
REM DATE 2004
REM DISCID B5126E0D
REM COMMENT "ExactAudioCopy v0.99pb4"
PERFORMER "Kattoo"
TITLE "Places"
FILE "01 - Place1.wav" WAVE
TRACK 01 AUDIO
TITLE "Place1"
PERFORMER "Kattoo"
FLAGS DCP
INDEX 01 00:00:00
FILE "02 - Place2.wav" WAVE
TRACK 02 AUDIO
TITLE "Place2"
PERFORMER "Kattoo"
FLAGS DCP
INDEX 01 00:00:00
FILE "03 - Place3.wav" WAVE
TRACK 03 AUDIO
TITLE "Place3"
PERFORMER "Kattoo"
FLAGS DCP
INDEX 01 00:00:00
FILE "04 - Place4.wav" WAVE
TRACK 04 AUDIO
TITLE "Place4"
PERFORMER "Kattoo"
FLAGS DCP
INDEX 01 00:00:00
FILE "05 - Place5.wav" WAVE
TRACK 05 AUDIO
TITLE "Place5"
PERFORMER "Kattoo"
FLAGS DCP
INDEX 01 00:00:00
FILE "06 - Place6.wav" WAVE
TRACK 06 AUDIO
TITLE "Place6"
PERFORMER "Kattoo"
FLAGS DCP
INDEX 01 00:00:00
FILE "07 - Place7.wav" WAVE
TRACK 07 AUDIO
TITLE "Place7"
PERFORMER "Kattoo"
FLAGS DCP
INDEX 01 00:00:00
FILE "08 - Place8.wav" WAVE
TRACK 08 AUDIO
TITLE "Place8"
PERFORMER "Kattoo"
FLAGS DCP
INDEX 01 00:00:00
FILE "09 - Place9.wav" WAVE
TRACK 09 AUDIO
TITLE "Place9"
PERFORMER "Kattoo"
FLAGS DCP
INDEX 01 00:00:00
FILE "10 - Place10.wav" WAVE
TRACK 10 AUDIO
TITLE "Place10"
PERFORMER "Kattoo"
FLAGS DCP
INDEX 01 00:00:00
FILE "11 - Place11.wav" WAVE
TRACK 11 AUDIO
TITLE "Place11"
PERFORMER "Kattoo"
FLAGS DCP
INDEX 01 00:00:00
FILE "12 - Re-Place7 (RMX By Flaque).wav" WAVE
TRACK 12 AUDIO
TITLE "Re-Place7 (RMX By Flaque)"
PERFORMER "Kattoo"
FLAGS DCP
INDEX 01 00:00:00
TRACK 13 MODEx/2xxx
INDEX 00 04:46:22

Год выпуска: 2005
Продолжительность: 00:50:51
Треклист:

01. Untitled (01:04)
02. Untitled (02:26)
03. Untitled (04:41)
04. Untitled (04:21)
05. Untitled (01:59)
06. Untitled (02:56)
07. Untitled (00:38)
08. Untitled (02:56)
09. Untitled (01:39)
10. Untitled (02:06)
11. Untitled (00:54)
12. Untitled (01:03)
13. Untitled (01:25)
14. Untitled (04:30)
15. Untitled (03:02)
16. Untitled (04:45)
17. Untitled (01:10)
18. Untitled (05:06)
19. Untitled (01:41)
20. Untitled (02:29)

Exact Audio Copy V0.99 prebeta 4 from 23. January 2008

EAC extraction logfile from 12. August 2009, 0:17

Kattoo / Megrim

Used drive : Optiarc DVD RW AD-7203S Adapter: 3 ID: 1

Read mode : Secure
Utilize accurate stream : Yes
Defeat audio cache : Yes
Make use of C2 pointers : No

Read offset correction : 48
Overread into Lead-In and Lead-Out : No
Fill up missing offset samples with silence : Yes
Delete leading and trailing silent blocks : No
Null samples used in CRC calculations : Yes
Used interface : Installed external ASPI interface
Gap handling : Appended to previous track

Used output format : User Defined Encoder
Selected bitrate : 128 kBit/s
Quality : High
Add ID3 tag : No
Command line compressor : C:\Program Files\Exact Audio Copy\Flac\flac.exe
Additional command line options : -V -8 -T "artist=%a" -T "title=%t" -T "album=%g" -T "date=%y" -T "tracknumber=%n" -T "genre=%m" %s

TOC of the extracted CD

Track | Start | Length | Start sector | End sector
---------------------------------------------------------
1 | 0:00.00 | 1:04.00 | 0 | 4799
2 | 1:04.00 | 2:25.60 | 4800 | 15734
3 | 3:29.60 | 4:40.53 | 15735 | 36787
4 | 8:10.38 | 4:20.60 | 36788 | 56347
5 | 12:31.23 | 1:58.46 | 56348 | 65243
6 | 14:29.69 | 2:56.22 | 65244 | 78465
7 | 17:26.16 | 0:37.67 | 78466 | 81307
8 | 18:04.08 | 2:55.40 | 81308 | 94472
9 | 20:59.48 | 1:38.40 | 94473 | 101862
10 | 22:38.13 | 2:06.27 | 101863 | 111339
11 | 24:44.40 | 0:54.30 | 111340 | 115419
12 | 25:38.70 | 1:03.25 | 115420 | 120169
13 | 26:42.20 | 1:25.37 | 120170 | 126581
14 | 28:07.57 | 4:30.00 | 126582 | 146831
15 | 32:37.57 | 3:01.43 | 146832 | 160449
16 | 35:39.25 | 4:44.60 | 160450 | 181809
17 | 40:24.10 | 1:10.10 | 181810 | 187069
18 | 41:34.20 | 5:05.66 | 187070 | 210010
19 | 46:40.11 | 1:41.28 | 210011 | 217613
20 | 48:21.39 | 2:28.49 | 217614 | 228762

Track 1

Filename f:\Eac\Kattoo - 2005 - Megrim\01 - Megrim 01.wav

Pre-gap length 0:00:02.00

Peak level 99.9 %
Track quality 100.0 %
Test CRC 11E65EF3
Copy CRC 11E65EF3
Accurately ripped (confidence 2) [3DA74EB9]
Copy OK

Track 2

Filename f:\Eac\Kattoo - 2005 - Megrim\02 - Megrim 02.wav

Peak level 99.8 %
Track quality 99.9 %
Test CRC 645E8A12
Copy CRC 645E8A12
Accurately ripped (confidence 2) [CE1BD44B]
Copy OK

Track 3

Filename f:\Eac\Kattoo - 2005 - Megrim\03 - Megrim 03.wav

Peak level 99.9 %
Track quality 100.0 %
Test CRC 29DBAE25
Copy CRC 29DBAE25
Accurately ripped (confidence 2) [F09C6667]
Copy OK

Track 4

Filename f:\Eac\Kattoo - 2005 - Megrim\04 - Megrim 04.wav

Peak level 99.9 %
Track quality 100.0 %
Test CRC 4E10F62C
Copy CRC 4E10F62C
Accurately ripped (confidence 2) [89765119]
Copy OK

Track 5

Filename f:\Eac\Kattoo - 2005 - Megrim\05 - Megrim 05.wav

Peak level 100.0 %
Track quality 100.0 %
Test CRC 717103AA
Copy CRC 717103AA
Accurately ripped (confidence 2) [210387F8]
Copy OK

Track 6

Filename f:\Eac\Kattoo - 2005 - Megrim\06 - Megrim 06.wav

Peak level 99.9 %
Track quality 99.9 %
Test CRC C9AD5453
Copy CRC C9AD5453
Accurately ripped (confidence 2) [C4F849BA]
Copy OK

Track 7

Filename f:\Eac\Kattoo - 2005 - Megrim\07 - Megrim 07.wav

Peak level 77.8 %
Track quality 100.0 %
Test CRC 05D886AE
Copy CRC 05D886AE
Accurately ripped (confidence 2) [63576CC7]
Copy OK

Track 8

Filename f:\Eac\Kattoo - 2005 - Megrim\08 - Megrim 08.wav

Peak level 99.9 %
Track quality 100.0 %
Test CRC 5609C00F
Copy CRC 5609C00F
Accurately ripped (confidence 2) [A28C9F73]
Copy OK

Track 9

Filename f:\Eac\Kattoo - 2005 - Megrim\09 - Megrim 09.wav

Peak level 78.5 %
Track quality 100.0 %
Test CRC 9BF98BE6
Copy CRC 9BF98BE6
Accurately ripped (confidence 2) [3EB4CE35]
Copy OK

Track 10

Filename f:\Eac\Kattoo - 2005 - Megrim\10 - Megrim 10.wav

Peak level 99.9 %
Track quality 100.0 %
Test CRC 7D0CB9D0
Copy CRC 7D0CB9D0
Accurately ripped (confidence 2) [19901629]
Copy OK

Track 11

Filename f:\Eac\Kattoo - 2005 - Megrim\11 - Megrim 11.wav

Peak level 87.3 %
Track quality 100.0 %
Test CRC 44C08467
Copy CRC 44C08467
Accurately ripped (confidence 2) [FB8DE63A]
Copy OK

Track 12

Filename f:\Eac\Kattoo - 2005 - Megrim\12 - Megrim 12.wav

Peak level 99.9 %
Track quality 100.0 %
Test CRC 06A98D1E
Copy CRC 06A98D1E
Accurately ripped (confidence 2) [E456E193]
Copy OK

Track 13

Filename f:\Eac\Kattoo - 2005 - Megrim\13 - Megrim 13.wav

Peak level 99.9 %
Track quality 100.0 %
Test CRC B1FBC819
Copy CRC B1FBC819
Accurately ripped (confidence 2) [EE0021A3]
Copy OK

Track 14

Filename f:\Eac\Kattoo - 2005 - Megrim\14 - Megrim 14.wav

Peak level 99.9 %
Track quality 100.0 %
Test CRC 49DAAC30
Copy CRC 49DAAC30
Accurately ripped (confidence 2) [E0DEBB30]
Copy OK

Track 15

Filename f:\Eac\Kattoo - 2005 - Megrim\15 - Megrim 15.wav

Peak level 100.0 %
Track quality 100.0 %
Test CRC E36FB109
Copy CRC E36FB109
Accurately ripped (confidence 2) [52017DD8]
Copy OK

Track 16

Filename f:\Eac\Kattoo - 2005 - Megrim\16 - Megrim 16.wav

Peak level 100.0 %
Track quality 100.0 %
Test CRC 01A6A237
Copy CRC 01A6A237
Accurately ripped (confidence 2) [1AE010E7]
Copy OK

Track 17

Filename f:\Eac\Kattoo - 2005 - Megrim\17 - Megrim 17.wav

Peak level 81.2 %
Track quality 100.0 %
Test CRC 28BFEDAC
Copy CRC 28BFEDAC
Track not present in AccurateRip database
Copy OK

Track 18

Filename f:\Eac\Kattoo - 2005 - Megrim\18 - Megrim 18.wav

Peak level 65.0 %
Track quality 100.0 %
Test CRC 41D020D2
Copy CRC 41D020D2
Accurately ripped (confidence 2) [1C87A8D1]
Copy OK

Track 19

Filename f:\Eac\Kattoo - 2005 - Megrim\19 - Megrim 19.wav

Peak level 34.0 %
Track quality 100.0 %
Test CRC 64C957DA
Copy CRC 64C957DA
Accurately ripped (confidence 2) [EE7EEBCE]
Copy OK

Track 20

Filename f:\Eac\Kattoo - 2005 - Megrim\20 - Megrim 20.wav

Peak level 99.9 %
Track quality 100.0 %
Test CRC E3B5823D
Copy CRC E3B5823D
Accurately ripped (confidence 2) [365C17BA]
Copy OK

19 track(s) accurately ripped
1 track(s) not present in the AccurateRip database

Some tracks could not be verified as accurate

No errors occurred

End of status report


REM GENRE IDM
REM DATE 2005
REM DISCID 0E0BEA14
REM COMMENT "ExactAudioCopy v0.99pb4"
PERFORMER "Kattoo"
TITLE "Megrim"
FILE "01. Megrim 01.wav" WAVE
TRACK 01 AUDIO
TITLE "Megrim 01"
PERFORMER "Kattoo"
INDEX 01 00:00:00
FILE "02. Megrim 02.wav" WAVE
TRACK 02 AUDIO
TITLE "Megrim 02"
PERFORMER "Kattoo"
INDEX 01 00:00:00
FILE "03. Megrim 03.wav" WAVE
TRACK 03 AUDIO
TITLE "Megrim 03"
PERFORMER "Kattoo"
INDEX 01 00:00:00
FILE "04. Megrim 04.wav" WAVE
TRACK 04 AUDIO
TITLE "Megrim 04"
PERFORMER "Kattoo"
INDEX 01 00:00:00
FILE "05. Megrim 05.wav" WAVE
TRACK 05 AUDIO
TITLE "Megrim 05"
PERFORMER "Kattoo"
INDEX 01 00:00:00
FILE "06. Megrim 06.wav" WAVE
TRACK 06 AUDIO
TITLE "Megrim 06"
PERFORMER "Kattoo"
INDEX 01 00:00:00
FILE "07. Megrim 07.wav" WAVE
TRACK 07 AUDIO
TITLE "Megrim 07"
PERFORMER "Kattoo"
INDEX 01 00:00:00
FILE "08. Megrim 08.wav" WAVE
TRACK 08 AUDIO
TITLE "Megrim 08"
PERFORMER "Kattoo"
INDEX 01 00:00:00
FILE "09. Megrim 09.wav" WAVE
TRACK 09 AUDIO
TITLE "Megrim 09"
PERFORMER "Kattoo"
INDEX 01 00:00:00
FILE "10. Megrim 10.wav" WAVE
TRACK 10 AUDIO
TITLE "Megrim 10"
PERFORMER "Kattoo"
INDEX 01 00:00:00
FILE "11. Megrim 11.wav" WAVE
TRACK 11 AUDIO
TITLE "Megrim 11"
PERFORMER "Kattoo"
INDEX 01 00:00:00
FILE "12. Megrim 12.wav" WAVE
TRACK 12 AUDIO
TITLE "Megrim 12"
PERFORMER "Kattoo"
INDEX 01 00:00:00
FILE "13. Megrim 13.wav" WAVE
TRACK 13 AUDIO
TITLE "Megrim 13"
PERFORMER "Kattoo"
INDEX 01 00:00:00
FILE "14. Megrim 14.wav" WAVE
TRACK 14 AUDIO
TITLE "Megrim 14"
PERFORMER "Kattoo"
INDEX 01 00:00:00
FILE "15. Megrim 15.wav" WAVE
TRACK 15 AUDIO
TITLE "Megrim 15"
PERFORMER "Kattoo"
INDEX 01 00:00:00
FILE "16. Megrim 16.wav" WAVE
TRACK 16 AUDIO
TITLE "Megrim 16"
PERFORMER "Kattoo"
INDEX 01 00:00:00
FILE "17. Megrim 17.wav" WAVE
TRACK 17 AUDIO
TITLE "Megrim 17"
PERFORMER "Kattoo"
INDEX 01 00:00:00
FILE "18. Megrim 18.wav" WAVE
TRACK 18 AUDIO
TITLE "Megrim 18"
PERFORMER "Kattoo"
INDEX 01 00:00:00
FILE "19. Megrim 19.wav" WAVE
TRACK 19 AUDIO
TITLE "Megrim 19"
PERFORMER "Kattoo"
INDEX 01 00:00:00
FILE "20. Megrim 20.wav" WAVE
TRACK 20 AUDIO
TITLE "Megrim 20"
PERFORMER "Kattoo"
INDEX 01 00:00:00

Год выпуска: 2006
Продолжительность: 00:52:16
Треклист:

01. Hang On (03:47)
02. Oddly Space (03:44)
03. Lost In Sleep (02:50)
04. Gruesome Wake (00:28)
05. Grind Piano (02:20)
06. You Are So... (01:54)
07. Defeat (02:22)
08. Put An End To (01:23)
09. Somber Happening (03:37)
10. Mentally Ill (04:05)
11. Equilibration (03:33)
12. Stretch Of Time (04:45)
13. Flaque's Church (01:53)
14. Ala Flaque (03:30)
15. You Don't Know Me (04:17)
16. Hang On To A Dream (07:48)

Exact Audio Copy V0.99 prebeta 4 from 23. January 2008

EAC extraction logfile from 5. July 2009, 5:27

Kattoo / Hang on to a Dream

Used drive : SATA TSSTcorpCDDVDW S Adapter: 4 ID: 0

Read mode : Secure
Utilize accurate stream : Yes
Defeat audio cache : Yes
Make use of C2 pointers : No

Read offset correction : 6
Overread into Lead-In and Lead-Out : No
Fill up missing offset samples with silence : Yes
Delete leading and trailing silent blocks : No
Null samples used in CRC calculations : Yes
Used interface : Native Win32 interface for Win NT & 2000
Gap handling : Appended to previous track

Used output format : User Defined Encoder
Selected bitrate : 128 kBit/s
Quality : High
Add ID3 tag : No
Command line compressor : C:\Program Files\Exact Audio Copy\Flac\flac.exe
Additional command line options : -V -8 -T "artist=%a" -T "title=%t" -T "album=%g" -T "date=%y" -T "tracknumber=%n" -T "genre=%m" %s

TOC of the extracted CD

Track | Start | Length | Start sector | End sector
---------------------------------------------------------
1 | 0:00.00 | 3:47.35 | 0 | 17059
2 | 3:47.35 | 3:43.54 | 17060 | 33838
3 | 7:31.14 | 2:50.20 | 33839 | 46608
4 | 10:21.34 | 0:28.27 | 46609 | 48735
5 | 10:49.61 | 2:19.43 | 48736 | 59203
6 | 13:09.29 | 1:54.17 | 59204 | 67770
7 | 15:03.46 | 2:21.71 | 67771 | 78416
8 | 17:25.42 | 1:22.48 | 78417 | 84614
9 | 18:48.15 | 3:37.04 | 84615 | 100893
10 | 22:25.19 | 4:05.01 | 100894 | 119269
11 | 26:30.20 | 3:32.56 | 119270 | 135225
12 | 30:03.01 | 4:44.72 | 135226 | 156597
13 | 34:47.73 | 1:52.50 | 156598 | 165047
14 | 36:40.48 | 3:29.70 | 165048 | 180792
15 | 40:10.43 | 4:16.59 | 180793 | 200051
16 | 44:27.27 | 7:47.73 | 200052 | 235149

Track 1

Filename Z:\music\k\Kattoo\2006 Hang on to a Dream [FLAC]\Kattoo - 01 - Hang On.wav

Pre-gap length 0:00:02.00

Peak level 99.9 %
Track quality 99.9 %
Test CRC B6F630D2
Copy CRC B6F630D2
Accurately ripped (confidence 4) [D18CE8E3]
Copy OK

Track 2

Filename Z:\music\k\Kattoo\2006 Hang on to a Dream [FLAC]\Kattoo - 02 - Oddly Space.wav

Peak level 99.9 %
Track quality 100.0 %
Test CRC 9B63CF63
Copy CRC 9B63CF63
Accurately ripped (confidence 4) [4F28314F]
Copy OK

Track 3

Filename Z:\music\k\Kattoo\2006 Hang on to a Dream [FLAC]\Kattoo - 03 - Lost in Sleep.wav

Peak level 99.9 %
Track quality 100.0 %
Test CRC 26166F48
Copy CRC 26166F48
Accurately ripped (confidence 4) [EEE59F00]
Copy OK

Track 4

Filename Z:\music\k\Kattoo\2006 Hang on to a Dream [FLAC]\Kattoo - 04 - Gruesome Wake.wav

Peak level 99.9 %
Track quality 100.0 %
Test CRC 7979F4C0
Copy CRC 7979F4C0
Accurately ripped (confidence 4) [FC1F8EA0]
Copy OK

Track 5

Filename Z:\music\k\Kattoo\2006 Hang on to a Dream [FLAC]\Kattoo - 05 - Grind Piano.wav

Peak level 99.9 %
Track quality 100.0 %
Test CRC 20089D50
Copy CRC 20089D50
Accurately ripped (confidence 4) [0B5C3600]
Copy OK

Track 6

Filename Z:\music\k\Kattoo\2006 Hang on to a Dream [FLAC]\Kattoo - 06 - You are so....wav

Peak level 99.9 %
Track quality 99.9 %
Test CRC 972B2821
Copy CRC 972B2821
Accurately ripped (confidence 4) [47C11C8C]
Copy OK

Track 7

Filename Z:\music\k\Kattoo\2006 Hang on to a Dream [FLAC]\Kattoo - 07 - Defeat.wav

Peak level 99.9 %
Track quality 100.0 %
Test CRC D8790DBC
Copy CRC D8790DBC
Accurately ripped (confidence 4) [A57A0BBB]
Copy OK

Track 8

Filename Z:\music\k\Kattoo\2006 Hang on to a Dream [FLAC]\Kattoo - 08 - Put an End to.wav

Peak level 99.9 %
Track quality 100.0 %
Test CRC D9FC6B32
Copy CRC D9FC6B32
Accurately ripped (confidence 4) [971FE0ED]
Copy OK

Track 9

Filename Z:\music\k\Kattoo\2006 Hang on to a Dream [FLAC]\Kattoo - 09 - Somber Happening.wav

Peak level 100.0 %
Track quality 100.0 %
Test CRC A3DA4F12
Copy CRC A3DA4F12
Accurately ripped (confidence 4) [D6561FD6]
Copy OK

Track 10

Filename Z:\music\k\Kattoo\2006 Hang on to a Dream [FLAC]\Kattoo - 10 - Mentally Ill.wav

Peak level 100.0 %
Track quality 100.0 %
Test CRC 7B1B1372
Copy CRC 7B1B1372
Accurately ripped (confidence 4) [48650FE9]
Copy OK

Track 11

Filename Z:\music\k\Kattoo\2006 Hang on to a Dream [FLAC]\Kattoo - 11 - Equilibration.wav

Peak level 99.9 %
Track quality 100.0 %
Test CRC 58EC0B74
Copy CRC 58EC0B74
Accurately ripped (confidence 4) [7570A4CD]
Copy OK

Track 12

Filename Z:\music\k\Kattoo\2006 Hang on to a Dream [FLAC]\Kattoo - 12 - Stretch of Time.wav

Peak level 100.0 %
Track quality 100.0 %
Test CRC 075EDF0F
Copy CRC 075EDF0F
Accurately ripped (confidence 4) [9C642302]
Copy OK

Track 13

Filename Z:\music\k\Kattoo\2006 Hang on to a Dream [FLAC]\Kattoo - 13 - Flaque's Church.wav

Peak level 79.5 %
Track quality 100.0 %
Test CRC EDC37AA2
Copy CRC EDC37AA2
Accurately ripped (confidence 4) [BA90FB19]
Copy OK

Track 14

Filename Z:\music\k\Kattoo\2006 Hang on to a Dream [FLAC]\Kattoo - 14 - Ala Flaque.wav

Peak level 99.9 %
Track quality 100.0 %
Test CRC 77A723B4
Copy CRC 77A723B4
Accurately ripped (confidence 4) [F06207A5]
Copy OK

Track 15

Filename Z:\music\k\Kattoo\2006 Hang on to a Dream [FLAC]\Kattoo - 15 - You Don't Know Me.wav

Peak level 99.9 %
Track quality 100.0 %
Test CRC A11CFCB6
Copy CRC A11CFCB6
Accurately ripped (confidence 4) [58D0F6BC]
Copy OK

Track 16

Filename Z:\music\k\Kattoo\2006 Hang on to a Dream [FLAC]\Kattoo - 16 - Hang on to a Dream.wav

Peak level 99.9 %
Track quality 100.0 %
Test CRC C6637920
Copy CRC C6637920
Accurately ripped (confidence 4) [2A006722]
Copy OK

All tracks accurately ripped

No errors occurred

End of status report


REM GENRE IDM
REM DATE 2006
REM DISCID C90C3F10
REM COMMENT "ExactAudioCopy v0.99pb4"
PERFORMER "Kattoo"
TITLE "Hang on to a Dream"
FILE "01 - Hang On.wav" WAVE
TRACK 01 AUDIO
TITLE "Hang On"
PERFORMER "Kattoo"
INDEX 01 00:00:00
FILE "02 - Oddly Space.wav" WAVE
TRACK 02 AUDIO
TITLE "Oddly Space"
PERFORMER "Kattoo"
INDEX 01 00:00:00
FILE "03 - Lost in Sleep.wav" WAVE
TRACK 03 AUDIO
TITLE "Lost in Sleep"
PERFORMER "Kattoo"
INDEX 01 00:00:00
FILE "04 - Gruesome Wake.wav" WAVE
TRACK 04 AUDIO
TITLE "Gruesome Wake"
PERFORMER "Kattoo"
INDEX 01 00:00:00
FILE "05 - Grind Piano.wav" WAVE
TRACK 05 AUDIO
TITLE "Grind Piano"
PERFORMER "Kattoo"
INDEX 01 00:00:00
FILE "06 - You are so....wav" WAVE
TRACK 06 AUDIO
TITLE "You are so..."
PERFORMER "Kattoo"
INDEX 01 00:00:00
FILE "07 - Defeat.wav" WAVE
TRACK 07 AUDIO
TITLE "Defeat"
PERFORMER "Kattoo"
INDEX 01 00:00:00
FILE "08 - Put an End to.wav" WAVE
TRACK 08 AUDIO
TITLE "Put an End to"
PERFORMER "Kattoo"
INDEX 01 00:00:00
FILE "09 - Somber Happening.wav" WAVE
TRACK 09 AUDIO
TITLE "Somber Happening"
PERFORMER "Kattoo"
INDEX 01 00:00:00
FILE "10 - Mentally Ill.wav" WAVE
TRACK 10 AUDIO
TITLE "Mentally Ill"
PERFORMER "Kattoo"
INDEX 01 00:00:00
FILE "11 - Equilibration.wav" WAVE
TRACK 11 AUDIO
TITLE "Equilibration"
PERFORMER "Kattoo"
INDEX 01 00:00:00
FILE "12 - Stretch of Time.wav" WAVE
TRACK 12 AUDIO
TITLE "Stretch of Time"
PERFORMER "Kattoo"
INDEX 01 00:00:00
FILE "13 - Flaque's Church.wav" WAVE
TRACK 13 AUDIO
TITLE "Flaque's Church"
PERFORMER "Kattoo"
INDEX 01 00:00:00
FILE "14 - Ala Flaque.wav" WAVE
TRACK 14 AUDIO
TITLE "Ala Flaque"
PERFORMER "Kattoo"
INDEX 01 00:00:00
FILE "15 - You Don't Know Me.wav" WAVE
TRACK 15 AUDIO
TITLE "You Don't Know Me"
PERFORMER "Kattoo"
INDEX 01 00:00:00
FILE "16 - Hang on to a Dream.wav" WAVE
TRACK 16 AUDIO
TITLE "Hang on to a Dream"
PERFORMER "Kattoo"
INDEX 01 00:00:00

Год выпуска: 2010
Продолжительность: 00:50:46
Треклист:

01. ll-- l- l--l-ll- l-ll (05:11)
02. l-l l-ll l- l--ll- l--l-ll l--l-l (04:56)
03. l-l ll-ll- l--ll-ll- ll-- l--ll-ll l-ll l--ll-ll- l--ll-ll- (05:39)
04. ll- ll-ll ll--l- l--ll-ll ll- ll-ll (04:40)
05. l--ll-ll- ll- l--ll-ll l- ll-- ll- ll-ll ll--l-ll (03:37)
06. ll--l- l--l-l ll-- ll-ll- ll-- l--ll l-ll l-l (05:17)
07. l-ll ll--ll l-ll l--l-l ll-ll- l--l-l ll-l (04:49)
08. l--l-ll- ll-ll- l- l--l-l l--l-ll ll-- l--ll-ll l- ll- l--l- (04:19)
09. l--l-ll l--ll-ll ll- ll-ll ll l-ll l- ll-- (03:45)
10. l--ll-ll- l-ll ll--ll l-ll l--l-l ll-- ll--l-ll (04:30)
11. ll--ll ll-ll- l--l-ll l--ll ll-ll- l--l-l (04:03)

-----------------------

DON'T MODIFY THIS FILE

-----------------------

PERFORMER: auCDtect Task Manager, ver. 1.5.1RC6 build 1.5.1.7
Copyright (c) 2008-2010 y-soft. All rights reserved
http://y-soft.org

ANALYZER: auCDtect: CD records authenticity detector, version 0.8.2
Copyright (c) 2004 Oleg Berngardt. All rights reserved.
Copyright (c) 2004 Alexander Djourik. All rights reserved.

FILE: 11. ll--ll ll-ll- l--l-ll l--ll ll-ll- l--l-l.flac
Size: 23858895 Hash: D988DF0DE3AE1F5491E2060EA8ECB27D Accuracy: -m0
Conclusion: CDDA 99%
Signature: E646DAA318CB41A1C6B53207C4C463C6B55ED272
FILE: 10. l--ll-ll- l-ll ll--ll l-ll l--l-l ll-- ll--l-ll.flac
Size: 30976841 Hash: AA27C5076983B557FE557D6339D226E9 Accuracy: -m0
Conclusion: CDDA 100%
Signature: 5B1393FF0A9368EF699AFE7DB755DECF4BBADB28
FILE: 09. l--l-ll l--ll-ll ll- ll-ll ll l-ll l- ll--.flac
Size: 24529735 Hash: 5CCD941B9412F6C4169C02B20572B752 Accuracy: -m0
Conclusion: CDDA 100%
Signature: 6A81AFC77F5F5C62CED40B8542FA82DE433E882D
FILE: 08. l--l-ll- ll-ll- l- l--l-l l--l-ll ll-- l--ll-ll l- ll- l--l-.flac
Size: 19974191 Hash: 2BBEE73F557E12CB155999C9932F9014 Accuracy: -m0
Conclusion: CDDA 100%
Signature: 8DB012E44508B8644ECD36B0A76D94CBE8D5788D
FILE: 07. l-ll ll--ll l-ll l--l-l ll-ll- l--l-l ll-l.flac
Size: 27511277 Hash: 529CCB4D82FB3BFEEBD82BCE69247A42 Accuracy: -m0
Conclusion: CDDA 100%
Signature: 97E411E3736FC0C0916E267614E26E20FC8C4793
FILE: 06. ll--l- l--l-l ll-- ll-ll- ll-- l--ll l-ll l-l.flac
Size: 32455642 Hash: EB0BDE7110D04259E51CB28E5A13DFEB Accuracy: -m0
Conclusion: CDDA 100%
Signature: 18D9DB3AB40C7957BC3F0CDFDB31C11AAF01D304
FILE: 05. l--ll-ll- ll- l--ll-ll l- ll-- ll- ll-ll ll--l-ll.flac
Size: 22891353 Hash: 62182DD97D0F82897242F9949674E6BF Accuracy: -m0
Conclusion: CDDA 99%
Signature: 739D36F4FC7DABC327EFB26B165B7AAC1D9F2CD5
FILE: 04. ll- ll-ll ll--l- l--ll-ll ll- ll-ll.flac
Size: 27729495 Hash: BE59B0CC378865FDD754BF2377E00F60 Accuracy: -m0
Conclusion: CDDA 100%
Signature: C4ED2DB2F9D4B910B410A50811A9C4C0BD69AE7D
FILE: 03. l-l ll-ll- l--ll-ll- ll-- l--ll-ll l-ll l--ll-ll- l--ll-ll-.flac
Size: 31074174 Hash: 1B85EA58D585826259B99DBC619AC23C Accuracy: -m0
Conclusion: CDDA 99%
Signature: 2F10768C89CD8594A5AE82A073762B4D0B3B1744
FILE: 02. l-l l-ll l- l--ll- l--l-ll l--l-l.flac
Size: 32219807 Hash: D92822EDC5BBB07CF15779C6FF5A9FD1 Accuracy: -m0
Conclusion: CDDA 100%
Signature: 894A6ED61C3E9289D543642835D79CF20C613534
FILE: 01. ll-- l- l--l-ll- l-ll.flac
Size: 32133170 Hash: B0DE0D35D2401E183980CBB722FF4F7D Accuracy: -m0
Conclusion: MPEG 97%
Signature: 8B4E14478A01507374CB757F59F0D268517D6AA6

Год выпуска: 2013
Продолжительность: 00:44:45
Треклист:

01. Future Presence (00:46)
02. Lost In Life (04:48)
03. Noisefloor Of Civilisation (00:25)
04. Shifted Rembrance (04:46)
05. Parasomnie (00:44)
06. Probability Wave (03:30)
07. Air Movement (00:27)
08. Wave-Particle Duality (04:01)
09. Fading Options (00:40)
10. Somewhere In Between (04:44)
11. On The Floor (00:44)
12. Doppelspalt Experiment (04:19)
13. Encounter (00:23)
14. Between Perception And Existence (04:22)
15. Inside The Treadmill (00:29)
16. Block Universe (04:04)
17. Observer Of Transience (00:43)
18. Past Of The Future (04:50)

-----------------------

DON'T MODIFY THIS FILE

-----------------------

PERFORMER: auCDtect Task Manager, ver. 1.5.1RC6 build 1.5.1.7
Copyright (c) 2008-2010 y-soft. All rights reserved
http://y-soft.org

ANALYZER: auCDtect: CD records authenticity detector, version 0.8.2
Copyright (c) 2004 Oleg Berngardt. All rights reserved.
Copyright (c) 2004 Alexander Djourik. All rights reserved.

FILE: 18. Past Of The Future.flac
Size: 29479563 Hash: CEB3519B69A8AC92CC2BD30B6068B743 Accuracy: -m0
Conclusion: CDDA 100%
Signature: 05407A2B30113E20030655C4E7A969B4B17E8CEE
FILE: 17. Observer Of Transience.flac
Size: 3200557 Hash: 75BFB48C2B34C8CA2E182EBF20214DAD Accuracy: -m0
Conclusion: CDDA 100%
Signature: 5E770B984A6DE5F5D30D62E5D7767C25C4A7924A
FILE: 16. Block Universe.flac
Size: 27644578 Hash: AC18656B4E60710C8117D24AA094AE12 Accuracy: -m0
Conclusion: CDDA 100%
Signature: ECCB4DB7F5A0FBE42702A3A06EAC5CE0F6E9DD6E
FILE: 15. Inside The Treadmill.flac
Size: 2631248 Hash: 030D8008AA2BE7F72E2DCB5512EED473 Accuracy: -m0
Conclusion: CDDA 58%
Signature: 82CEB310AD6F6BB182969F81A93A8BA1410798AF
FILE: 14. Between Perception And Existence.flac
Size: 28217849 Hash: 5124726F8D18356658BBB1AFA90FBBA9 Accuracy: -m0
Conclusion: CDDA 100%
Signature: 563B25285363400F70478167D7FBC6F00D946107
FILE: 13. Encounter.flac
Size: 2289368 Hash: B88F5A9D0864B4903AA6B17B07CF28EE Accuracy: -m0
Conclusion: CDDA 94%
Signature: 557D2F9DB97BE9E2CE9034A0D6E39A70966C6A46
FILE: 12. Doppelspalt Experiment.flac
Size: 29730339 Hash: C6C8F411CCA40C7DCAD227426E6C2EB3 Accuracy: -m0
Conclusion: CDDA 99%
Signature: AE8EED32FD5C26464D77AD1F599676F7E0F118CE
FILE: 11. On The Floor.flac
Size: 3747962 Hash: 0B66428EE54382EE2B7954AE23E64497 Accuracy: -m0
Conclusion: CDDA 94%
Signature: D9471C5C2DBC4B57C1F0AC7DA023C5A193CCB6C4
FILE: 10. Somewhere In Between.flac
Size: 26628117 Hash: EAD16B7A3DF26A2187C29ADF747F6F43 Accuracy: -m0
Conclusion: CDDA 99%
Signature: 8248204C9F1E9274D06634CC184A3BB7E8AF2860
FILE: 09. Fading Options.flac
Size: 3716676 Hash: DC6315DCED5FF676C85DC6A914042D7D Accuracy: -m0
Conclusion: CDDA 42%
Signature: C7936A61BEC11B85D7E9026B5513CEC637AE55F3
FILE: 08. Wave-Particle Duality.flac
Size: 25249070 Hash: ADBFC8301C50A296FA2737BC0209FAFF Accuracy: -m0
Conclusion: CDDA 100%
Signature: 9A0B5636B6D8315F87672DB5CA7F489ADDFAB0EA
FILE: 07. Air Movement.flac
Size: 2664816 Hash: 6B578BBD9118F8E6D129239702AB41F1 Accuracy: -m0
Conclusion: ???
Signature: 96C47DCA1F8A85F2E4C428C3EC0BBF60653AD8D5
FILE: 06. Probability Wave.flac
Size: 23489001 Hash: 0666402E7C7CB4BAA03AD007B29D9402 Accuracy: -m0
Conclusion: CDDA 100%
Signature: CE956E95634D542AAAC83F41CE32D9258F55077F
FILE: 05. Parasomnie.flac
Size: 4104814 Hash: D936641A8060C1E9C619313B196A7365 Accuracy: -m0
Conclusion: CDDA 86%
Signature: 20035462F7B2C7ECFAB9F7BEDE3FB1ADA160278F
FILE: 04. Shifted Remembrance.flac
Size: 31761373 Hash: 933A6B7C96F6985DFCDA1486E49ABE5C Accuracy: -m0
Conclusion: CDDA 100%
Signature: 898AAB801045002D76F044ABD04461D43E9606C3
FILE: 03. Noisefloor Of Civilisation.flac
Size: 2484059 Hash: C8579BD2C606A3D2386B657CAD52B163 Accuracy: -m0
Conclusion: CDDA 100%
Signature: 792297A6FF4AECAE5A66764017C99032E7C297BE
FILE: 02. Lost In Life.flac
Size: 26058552 Hash: 97A9727ECD440747F18A6534D691A5C0 Accuracy: -m0
Conclusion: CDDA 100%
Signature: 7E34CF4A573240EE5DD7E16CC5104E2073CD54AD
FILE: 01. Future Presence.flac
Size: 4258414 Hash: AE48BF3510C115429C32171D38C61A94 Accuracy: -m0
Conclusion: CDDA 99%
Signature: 22F530AC6DFAB8445BA005FF52D7F0B8A1FB4EA9

Время раздачи: 12/7
[NNMClub.to]_Kattoo FLAC.torrent
 Торрент: Серебряная раздча  Зарегистрирован
 
Примагнититься
Free Leech
Зарегистрируйтесь и скачайте торрент!
23,2 KB
 Зарегистрирован:   16 Ноя 2016 14:30:22
 Размер:   1,48 GB  (
 Рейтинг:    (Голосов: 7)
 Поблагодарили:   32
 Проверка:   Оформление проверено модератором 16 Ноя 2016 14:30:54
Как cкачать  ·  Как раздать  ·  Правильно оформить  ·  Поднять ратио!  
Показать сообщения:   
Начать новую тему   Ответить на тему    Торрент-трекер NNM-Club -> Electronic -> IDM (Lossless) Часовой пояс: GMT + 3
Страница 1 из 1