Интеллигентный торрент-трекер
canvas not supported
Нас вместе: 4 105 332

Пит и его дракон / Pete's Dragon (2016) BDRip [H.264/720p] [EN / EN Sub]


 
 
RSS
Начать новую тему   Ответить на тему    Торрент-трекер NNM-Club -> Зарубежное кино -> Фильмы в оригинале (HD)
Автор Сообщение
smaster67 ®
Модератор Видео
Покровитель талантов Uploader 300+
Стаж: 7 лет 5 мес.
Сообщений: 6261
Ratio: 180,138
Поблагодарили: 173871
100%
Пит и его дракон / Pete's Dragon (2016) BDRip [H.264/720p] [EN / EN Sub]

Производство: США
Жанр: фэнтези, приключения, семейный

Режиссер: Дэвид Лоури
Актеры: Брайс Даллас Ховард, Роберт Редфорд, Оакс Фигли, Уна Лоуренс, Уэс Бентли, Карл Урбан, Исайя Уитлок мл., Маркус Хендерсон, Аарон Джексон, Филип Грив, Стив Барр, Киган Карр Франш

Описание:
В течение многих лет Мистер Мичем забавлял местных детишек сказочными историями о свирепом драконе, обитающим на севере, глубоко в лесах. Для его дочери Грейс все эти истории казались ничем иным как выдумкой, ровно до тех пор, пока она не встретила в лесу маленького мальчика по имени Пит. Пит уже долгое время живет в диком лесу, у него нет ни дома, ни семьи, зато есть замечательный друг - огромный зеленый дракон Эллиот. Грейс решает разгадать историю юного Пита, узнать всю правду о его семье и загадочном драконе, о котором ходит так много слухов и легенд.



Продолжительность: 01:42:45
Качество видео: BDRip 720p
Перевод: Отсутствует
Язык озвучки: Английский
Язык субтитров: английский
Вид субтитров: Вшитые

Видео: AVC, 1280x536 (2.40:1), 4581 kbps, 23,976 fps, 0,278 bpp
Аудио: английский / DTS / 5.1 / 48 kHz / 1509 kbps / 24 bit
Код: выделить все
General
Unique ID                            petes.dragon.2016.720р.mkv
Format                                   : Matroska
Format version                           : Version 4 / Version 2
File size                                : 4.37 GiB
Duration                                 : 1 h 42 min
Overall bit rate                         : 6 091 kb/s
Encoded date                             : UTC 2016-11-15 22:54:22
Writing application                      : mkvmerge v8.5.2 ('DiAMOND') 64bit
Writing library                          : libebml v1.3.3 + libmatroska v1.4.4

Video
ID                                       : 1
Format                                   : AVC
Format/Info                              : Advanced Video Codec
Format profile                           : High@L4.1
Format settings, CABAC                   : Yes
Format settings, ReFrames                : 5 frames
Codec ID                                 : V_MPEG4/ISO/AVC
Duration                                 : 1 h 42 min
Bit rate                                 : 4 581 kb/s
Width                                    : 1 280 pixels
Height                                   : 536 pixels
Display aspect ratio                     : 2.40:1
Frame rate mode                          : Constant
Frame rate                               : 23.976 (24000/1001) FPS
Color space                              : YUV
Chroma subsampling                       : 4:2:0
Bit depth                                : 8 bits
Scan type                                : Progressive
Bits/(Pixel*Frame)                       : 0.278
Stream size                              : 3.20 GiB (73%)
Writing library                          : x264 core 148 r2721 72d53ab
Encoding settings                        : cabac=1 / ref=5 / deblock=1:0:0 / analyse=0x3:0x113 / me=umh / subme=8 / psy=1 / psy_rd=1.00:0.00 / mixed_ref=1 / me_range=16 / chroma_me=1 / trellis=2 / 8x8dct=1 / cqm=0 / deadzone=21,11 / fast_pskip=0 / chroma_qp_offset=-2 / threads=17 / lookahead_threads=2 / sliced_threads=0 / nr=0 / decimate=1 / interlaced=0 / bluray_compat=0 / constrained_intra=0 / bframes=3 / b_pyramid=2 / b_adapt=1 / b_bias=0 / direct=3 / weightb=1 / open_gop=0 / weightp=2 / keyint=250 / keyint_min=23 / scenecut=40 / intra_refresh=0 / rc_lookahead=50 / rc=2pass / mbtree=1 / bitrate=4581 / ratetol=1.0 / qcomp=0.60 / qpmin=0 / qpmax=69 / qpstep=4 / cplxblur=20.0 / qblur=0.5 / ip_ratio=1.40 / aq=1:1.00
Language                                 : English
Default                                  : Yes
Forced                                   : No

Audio
ID                                       : 2
Format                                   : DTS
Format/Info                              : Digital Theater Systems
Mode                                     : 16
Format settings, Endianness              : Big
Codec ID                                 : A_DTS
Duration                                 : 1 h 42 min
Bit rate mode                            : Constant
Bit rate                                 : 1 509 kb/s
Channel(s)                               : 6 channels
Channel positions                        : Front: L C R, Side: L R, LFE
Sampling rate                            : 48.0 kHz
Frame rate                               : 93.750 FPS (512 spf)
Bit depth                                : 24 bits
Compression mode                         : Lossy
Stream size                              : 1.08 GiB (25%)
Language                                 : English
Default                                  : Yes
Forced                                   : No

Text #1
ID                                       : 3
Format                                   : UTF-8
Codec ID                                 : S_TEXT/UTF8
Codec ID/Info                            : UTF-8 Plain Text
Title                                    : English regular
Language                                 : English
Default                                  : No
Forced                                   : No

Text #2
ID                                       : 4
Format                                   : UTF-8
Codec ID                                 : S_TEXT/UTF8
Codec ID/Info                            : UTF-8 Plain Text
Title                                    : English SDH
Language                                 : English
Default                                  : No
Forced                                   : No

Menu
00:00:00.000                             : en:00:00:00.000
00:06:03.989                             : en:00:06:03.989
00:09:46.669                             : en:00:09:46.669
00:15:20.128                             : en:00:15:20.128
00:21:28.496                             : en:00:21:28.496
00:30:23.447                             : en:00:30:23.447
00:36:57.966                             : en:00:36:57.966
00:44:03.057                             : en:00:44:03.057
00:52:28.062                             : en:00:52:28.062
00:56:42.566                             : en:00:56:42.566
01:03:13.832                             : en:01:03:13.832
01:10:07.078                             : en:01:10:07.078
01:17:17.508                             : en:01:17:17.508
01:26:46.034                             : en:01:26:46.034
01:32:26.750                             : en:01:32:26.750
01:35:01.362                             : en:01:35:01.362

Скриншоты:



Все одноименные релизы в Клубе

Время раздачи: с 13:00 до 23:00
[NNMClub.to]_petes.dragon.2016.720r.mkv.torrent
 Торрент: Серебряная раздча  Зарегистрирован
 
Примагнититься
Free Leech
Зарегистрируйтесь и скачайте торрент!
22 KB
 Зарегистрирован:   16 Ноя 2016 14:36:50
 Размер:   4,37 GB  (
 Рейтинг:    (Голосов: 8)
 Поблагодарили:   54
 Проверка:   Оформление проверено модератором 16 Ноя 2016 14:37:33
Как cкачать  ·  Как раздать  ·  Правильно оформить  ·  Поднять ратио!  
Показать сообщения:   
Начать новую тему   Ответить на тему    Торрент-трекер NNM-Club -> Зарубежное кино -> Фильмы в оригинале (HD) Часовой пояс: GMT + 3
Страница 1 из 1