Интеллигентный торрент-трекер
canvas not supported
Нас вместе: 4 115 455

Нервы на пределе / High Strung (2016) BDRip [H.264/720p] [EN]


 
 
RSS
Начать новую тему   Ответить на тему    Торрент-трекер NNM-Club -> Зарубежное кино -> Фильмы в оригинале (HD)
Автор Сообщение
smaster67 ®
Модератор Видео
Покровитель талантов Uploader 300+
Стаж: 7 лет 5 мес.
Сообщений: 6275
Ratio: 181,031
Поблагодарили: 174692
100%
Нервы на пределе / High Strung (2016) BDRip [H.264/720p] [EN]

Производство: США, Румыния
Жанр: драма, мелодрама, музыка

Режиссер: Майкл Дамиан
Актеры: Кинан Кампа, Николас Голицын, Соноя Мидзуно, Джейн Сеймур, Ричард Саутгейт, Пол Фримен, Маркус Эмануэл Митчелл, Майя Моргенштерн, Анабель Кутай, Джон Сильвер, Иэн Иствуд

Описание:
Он - скрипач, который вынужден играть в переходах метро, чтобы заработать на жизнь. Она - балерина, которая учится в престижной школе искусств. Казалось бы, при чем тут хип-хоп? Но именно в этом стиле они найдут точки соприкосновения, которые изменят их жизнь навсегда.



Продолжительность: 01:37:02
Качество видео: BDRip 720p
Перевод: Отсутствует
Язык озвучки: Английский

Видео: AVC, 1280x536 (2.40:1), 4935 kbps, 24 fps, 0,300 bpp
Аудио: английский / DTS / 5.1 / 48 kHz / 1509 kbps / 24 bit
Код: выделить все
General
Complete name                           high.strung.2016.limited.720p.bluray.x264.mkv
Format                                   : Matroska
Format version                           : Version 2
File size                                : 4.37 GiB
Duration                                 : 1 h 37 min
Overall bit rate                         : 6 445 kb/s
Writing application                      : mkvmerge v4.1.1 ('Bouncin' Back') built on Jul  3 2010 22:54:08
Writing library                          : libebml v1.0.0 + libmatroska v1.0

Video
ID                                       : 1
Format                                   : AVC
Format/Info                              : Advanced Video Codec
Format profile                           : High@L4.1
Format settings, CABAC                   : Yes
Format settings, ReFrames                : 5 frames
Codec ID                                 : V_MPEG4/ISO/AVC
Duration                                 : 1 h 37 min
Bit rate                                 : 4 935 kb/s
Width                                    : 1 280 pixels
Height                                   : 536 pixels
Display aspect ratio                     : 2.40:1
Frame rate mode                          : Constant
Frame rate                               : 24.000 FPS
Color space                              : YUV
Chroma subsampling                       : 4:2:0
Bit depth                                : 8 bits
Scan type                                : Progressive
Bits/(Pixel*Frame)                       : 0.300
Stream size                              : 3.26 GiB (75%)
Writing library                          : x264 core 148 r2721 72d53ab
Encoding settings                        : cabac=1 / ref=5 / deblock=1:1:1 / analyse=0x3:0x133 / me=umh / subme=8 / psy=1 / psy_rd=1.00:0.00 / mixed_ref=1 / me_range=16 / chroma_me=1 / trellis=1 / 8x8dct=1 / cqm=0 / deadzone=21,11 / fast_pskip=0 / chroma_qp_offset=-2 / threads=17 / lookahead_threads=2 / sliced_threads=0 / nr=0 / decimate=1 / interlaced=0 / bluray_compat=0 / constrained_intra=0 / bframes=3 / b_pyramid=2 / b_adapt=1 / b_bias=0 / direct=3 / weightb=1 / open_gop=0 / weightp=2 / keyint=240 / keyint_min=24 / scenecut=40 / intra_refresh=0 / rc_lookahead=50 / rc=2pass / mbtree=1 / bitrate=4935 / ratetol=1.0 / qcomp=0.60 / qpmin=0 / qpmax=69 / qpstep=4 / cplxblur=20.0 / qblur=0.5 / ip_ratio=1.40 / aq=1:1.00
Language                                 : English
Default                                  : Yes
Forced                                   : No

Audio
ID                                       : 2
Format                                   : DTS
Format/Info                              : Digital Theater Systems
Mode                                     : 16
Format settings, Endianness              : Big
Codec ID                                 : A_DTS
Duration                                 : 1 h 37 min
Bit rate mode                            : Constant
Bit rate                                 : 1 509 kb/s
Channel(s)                               : 6 channels
Channel positions                        : Front: L C R, Side: L R, LFE
Sampling rate                            : 48.0 kHz
Frame rate                               : 93.750 FPS (512 spf)
Bit depth                                : 24 bits
Compression mode                         : Lossy
Stream size                              : 1.02 GiB (23%)
Language                                 : English
Default                                  : Yes
Forced                                   : No

Menu
00:00:00.000                             : en:00:00:00.000
00:10:32.083                             : en:00:10:32.083
00:21:10.125                             : en:00:21:10.125
00:28:31.667                             : en:00:28:31.667
00:39:16.250                             : en:00:39:16.250
00:45:14.542                             : en:00:45:14.542
00:53:56.375                             : en:00:53:56.375
01:02:46.042                             : en:01:02:46.042
01:11:06.292                             : en:01:11:06.292
01:16:58.792                             : en:01:16:58.792
01:22:19.583                             : en:01:22:19.583
01:31:18.625                             : en:01:31:18.625

Скриншоты:



Все одноименные релизы в Клубе

Время раздачи: с 13:00 до 23:00
[NNMClub.to]_high.strung.2016.limited.720p.bluray.x264.mkv.torrent
 Торрент: Серебряная раздча  Зарегистрирован
 
Примагнититься
Free Leech
Зарегистрируйтесь и скачайте торрент!
22 KB
 Зарегистрирован:   17 Ноя 2016 00:01:47
 Размер:   4,37 GB  (
 Рейтинг:    (Голосов: 5)
 Поблагодарили:   29
 Проверка:   Оформление проверено модератором 17 Ноя 2016 00:02:14
Как cкачать  ·  Как раздать  ·  Правильно оформить  ·  Поднять ратио!  
Darkus3000
Стаж: 5 лет 9 мес.
Сообщений: 630
Ratio: 6,267
Поблагодарили: 52
86.64%
Откуда: Энгельс
russia.gif
Скрипач, который зарабатывает на жизнь в переходах метро выглядит как фитнес модель, да.
Evephir
Стаж: 2 года 4 мес.
Сообщений: 69
Ratio: 15,688
2.98%
Darkus3000
Почитайте про музыкантов в метро США, например. Зарабатывать на жизнь = еда, одежда, гель для душа, спортзал. Бывают, знаете ли красивые люди в мире. :)
Morya40g
Стаж: 3 года 11 мес.
Сообщений: 81
Ratio: 7,638
Поблагодарили: 1035
100%
ukraine.gif
Darkus3000 писал(а): Перейти к сообщению
Скрипач, который зарабатывает на жизнь в переходах метро выглядит как фитнес модель, да.
Теперь уже интересно как должен выглядеть скрипач :задумался:
Показать сообщения:   
Начать новую тему   Ответить на тему    Торрент-трекер NNM-Club -> Зарубежное кино -> Фильмы в оригинале (HD) Часовой пояс: GMT + 3
Страница 1 из 1