Интеллигентный торрент-трекер
canvas not supported
Нас вместе: 4 105 824

Джейсон Борн / Jason Bourne (2016) BDRip [H.264/720p] [EN]


 
 
RSS
Начать новую тему   Ответить на тему    Торрент-трекер NNM-Club -> Зарубежное кино -> Фильмы в оригинале (HD)
Автор Сообщение
smaster67 ®
Модератор Видео
Покровитель талантов Uploader 300+
Стаж: 7 лет 5 мес.
Сообщений: 6263
Ratio: 180,172
Поблагодарили: 173907
100%
Джейсон Борн / Jason Bourne (2016) BDRip [H.264/720p] [EN]

Производство: Великобритания, Китай, США
Жанр: боевик, триллер

Режиссер: Пол Гринграсс
Актеры: Мэтт Дэймон, Алисия Викандер, Томми Ли Джонс, Венсан Кассель, Джулия Стайлз, Риз Ахмед, Ато Эссонда, Скотт Шеперд, Билл Кэмп, Винцец Кифер, Стефан Канкен, Бен Стиляну

Описание:
Мир на грани катастрофы, а значит пришло время ему вернуться. Неаполь, Мюнхен, Нью-Йорк - его имя знают повсюду. Элитный суперагент, лучший из лучших, даже в Лас-Вегасе игра пойдет по его правилам. Он - Джейсон Борн.



Продолжительность: 02:03:11
Качество видео: BDRip 720p
Перевод: Отсутствует
Язык озвучки: Английский

Видео: AVC, 1280x536 (2.40:1), 4840 kbps, 23,976 fps, 0,294 bpp
Аудио: английский / DTS / 5.1 / 48 kHz / 1509 kbps / 24 bit
Код: выделить все
General
Unique ID                             Jason.Bourne.2016.720p.mkv
Format                                   : Matroska
Format version                           : Version 4 / Version 2
File size                                : 5.46 GiB
Duration                                 : 2 h 3 min
Overall bit rate                         : 6 349 kb/s
Encoded date                             : UTC 2016-11-17 07:01:46
Writing application                      : mkvmerge v8.3.0 ('Over the Horizon') 64bit
Writing library                          : libebml v1.3.1 + libmatroska v1.4.2

Video
ID                                       : 1
Format                                   : AVC
Format/Info                              : Advanced Video Codec
Format profile                           : High@L4.1
Format settings, CABAC                   : Yes
Format settings, ReFrames                : 5 frames
Codec ID                                 : V_MPEG4/ISO/AVC
Duration                                 : 2 h 3 min
Bit rate                                 : 4 840 kb/s
Width                                    : 1 280 pixels
Height                                   : 536 pixels
Display aspect ratio                     : 2.40:1
Frame rate mode                          : Constant
Frame rate                               : 23.976 FPS
Color space                              : YUV
Chroma subsampling                       : 4:2:0
Bit depth                                : 8 bits
Scan type                                : Progressive
Bits/(Pixel*Frame)                       : 0.294
Stream size                              : 4.16 GiB (76%)
Writing library                          : x264 core 148 r2705 3f5ed56
Encoding settings                        : cabac=1 / ref=5 / deblock=1:0:0 / analyse=0x3:0x133 / me=umh / subme=7 / psy=1 / psy_rd=1.00:0.00 / mixed_ref=1 / me_range=16 / chroma_me=1 / trellis=1 / 8x8dct=1 / cqm=0 / deadzone=21,11 / fast_pskip=0 / chroma_qp_offset=-2 / threads=12 / lookahead_threads=2 / sliced_threads=0 / nr=0 / decimate=1 / interlaced=0 / bluray_compat=0 / constrained_intra=0 / bframes=3 / b_pyramid=2 / b_adapt=1 / b_bias=0 / direct=1 / weightb=1 / open_gop=0 / weightp=2 / keyint=250 / keyint_min=23 / scenecut=40 / intra_refresh=0 / rc_lookahead=40 / rc=2pass / mbtree=1 / bitrate=4840 / ratetol=1.0 / qcomp=0.60 / qpmin=0 / qpmax=69 / qpstep=4 / cplxblur=20.0 / qblur=0.5 / ip_ratio=1.40 / aq=1:1.00
Language                                 : English
Default                                  : Yes
Forced                                   : No

Audio
ID                                       : 2
Format                                   : DTS
Format/Info                              : Digital Theater Systems
Mode                                     : 16
Format settings, Endianness              : Big
Codec ID                                 : A_DTS
Duration                                 : 2 h 3 min
Bit rate mode                            : Constant
Bit rate                                 : 1 509 kb/s
Channel(s)                               : 6 channels
Channel positions                        : Front: L C R, Side: L R, LFE
Sampling rate                            : 48.0 kHz
Frame rate                               : 93.750 FPS (512 spf)
Bit depth                                : 24 bits
Compression mode                         : Lossy
Stream size                              : 1.30 GiB (24%)
Language                                 : English
Default                                  : Yes
Forced                                   : No

Menu
00:00:00.000                             : en:00:00:00.000
00:04:04.661                             : en:00:04:04.661
00:08:21.543                             : en:00:08:21.543
00:13:32.687                             : en:00:13:32.687
00:18:28.316                             : en:00:18:28.316
00:24:07.237                             : en:00:24:07.237
00:29:21.259                             : en:00:29:21.259
00:36:15.548                             : en:00:36:15.548
00:42:20.663                             : en:00:42:20.663
00:48:22.441                             : en:00:48:22.441
00:55:12.184                             : en:00:55:12.184
01:01:09.666                             : en:01:01:09.666
01:08:32.483                             : en:01:08:32.483
01:16:23.329                             : en:01:16:23.329
01:24:45.330                             : en:01:24:45.330
01:29:06.550                             : en:01:29:06.550
01:37:52.909                             : en:01:37:52.909
01:44:26.343                             : en:01:44:26.343
01:48:03.727                             : en:01:48:03.727
01:54:01.209                             : en:01:54:01.209

Скриншоты:



Все одноименные релизы в Клубе

Время раздачи: с 13:00 до 23:00
[NNMClub.to]_Jason.Bourne.2016.720p.mkv.torrent
 Торрент: Серебряная раздча  Зарегистрирован
 
Примагнититься
Free Leech
Зарегистрируйтесь и скачайте торрент!
27,5 KB
 Зарегистрирован:   17 Ноя 2016 13:23:37
 Размер:   5,46 GB  (
 Рейтинг:    (Голосов: 7)
 Поблагодарили:   46
 Проверка:   Оформление проверено модератором 17 Ноя 2016 13:24:04
Как cкачать  ·  Как раздать  ·  Правильно оформить  ·  Поднять ратио!  
mcczoom
Стаж: 5 лет 1 мес.
Сообщений: 27
Ratio: 11,923
0.65%
canada.gif
Очень слабый фильм, не стоит тратить время на него.
Показать сообщения:   
Начать новую тему   Ответить на тему    Торрент-трекер NNM-Club -> Зарубежное кино -> Фильмы в оригинале (HD) Часовой пояс: GMT + 3
Страница 1 из 1