Интеллигентный торрент-трекер
canvas not supported
Нас вместе: 4 115 764

Не дыши / Don't Breathe (2016) BDRemux [H.264/1080p] [EN / EN, Sp Sub]


 
 
RSS
Начать новую тему   Ответить на тему    Торрент-трекер NNM-Club -> Зарубежное кино -> Фильмы в оригинале (HD)
Автор Сообщение
smaster67 ®
Модератор Видео
Покровитель талантов Uploader 300+
Стаж: 7 лет 5 мес.
Сообщений: 6277
Ratio: 181,038
Поблагодарили: 174711
100%
Не дыши / Don't Breathe (2016) BDRemux [H.264/1080p] [EN / EN, Sp Sub]

Производство: США
Жанр: ужасы, триллер, криминал

Режиссер: Федерико Альварес
Актеры: Стивен Лэнг, Джейн Леви, Дилан Миннетт, Дэниэл Дзоватто, Эмма Берковичи, Франциска Тёрёчик, Кристиан Сахиа, Катя Бокор, Сергей Онопко, Оливия Гиллис, Дэйна Кларк, Атос

Описание:
Грабители забираются в дом одинокого слепого старика с целью украсть огромную сумму, которая, по слухам, спрятана где-то внутри. Казалось бы - что может быть проще, чем вынести деньги из дома практически беспомощного человека. Но они жестоко ошибаются: преследуемый становится преследователем. И тайна, которую он хранит, гораздо страшнее, чем обычные пенсионные накопления.



Продолжительность: 01:28:32
Качество видео: BDRemux
Перевод: Отсутствует
Язык озвучки: Английский
Язык субтитров: английский, испанский
Вид субтитров: Вшитые

Видео: AVC, 1920x1080 (16:9), 24932 kbps, 23,976 fps, 0,502 bpp
Аудио: английский / DTS-HD / 5.1 / 48 kHz / 3840 kbps / 24 bit (Core: 5.1 / 48 kHz / 1509 kbps / 24 bit)
Код: выделить все
General
Unique ID                         Dont.Breathe.2016.REMUX.BluRay.1080p.AVC.DTS-HD.MA5.1-iFT\Dont.Breathe.2016.REMUX.BluRay.1080p.AVC.DTS-HD.MA5.1-iFT.mkv
Format                                   : Matroska
Format version                           : Version 4 / Version 2
File size                                : 17.8 GiB
Duration                                 : 1 h 28 min
Overall bit rate mode                    : Variable
Overall bit rate                         : 28.8 Mb/s
Encoded date                             : UTC 2016-11-17 15:05:30
Writing application                      : mkvmerge v8.5.1 ('Where you lead I will follow') 64bit
Writing library                          : libebml v1.3.3 + libmatroska v1.4.4

Video
ID                                       : 1
Format                                   : AVC
Format/Info                              : Advanced Video Codec
Format profile                           : High@L4.1
Format settings, CABAC                   : Yes
Format settings, ReFrames                : 2 frames
Format settings, GOP                     : M=1, N=10
Codec ID                                 : V_MPEG4/ISO/AVC
Duration                                 : 1 h 28 min
Bit rate mode                            : Variable
Bit rate                                 : 24.9 Mb/s
Width                                    : 1 920 pixels
Height                                   : 1 080 pixels
Display aspect ratio                     : 16:9
Frame rate mode                          : Constant
Frame rate                               : 23.976 (24000/1001) FPS
Color space                              : YUV
Chroma subsampling                       : 4:2:0
Bit depth                                : 8 bits
Scan type                                : Progressive
Bits/(Pixel*Frame)                       : 0.502
Stream size                              : 15.4 GiB (87%)
Default                                  : No
Forced                                   : No

Audio
ID                                       : 2
Format                                   : DTS
Format/Info                              : Digital Theater Systems
Format profile                           : MA / Core
Mode                                     : 16
Format settings, Endianness              : Big
Codec ID                                 : A_DTS
Duration                                 : 1 h 28 min
Bit rate mode                            : Variable / Constant
Bit rate                                 : 3 840 kb/s / 1 509 kb/s
Channel(s)                               : 6 channels
Channel positions                        : Front: L C R, Side: L R, LFE
Sampling rate                            : 48.0 kHz
Frame rate                               : 93.750 FPS (512 spf)
Bit depth                                : 24 bits
Compression mode                         : Lossless / Lossy
Stream size                              : 2.36 GiB (13%)
Default                                  : Yes
Forced                                   : No

Text #1
ID                                       : 3
Format                                   : PGS
Muxing mode                              : zlib
Codec ID                                 : S_HDMV/PGS
Codec ID/Info                            : Picture based subtitle format used on BDs/HD-DVDs
Duration                                 : 1 h 25 min
Bit rate                                 : 9 389 b/s
Count of elements                        : 2152
Stream size                              : 5.76 MiB (0%)
Language                                 : English
Default                                  : Yes
Forced                                   : No

Text #2
ID                                       : 4
Format                                   : PGS
Muxing mode                              : zlib
Codec ID                                 : S_HDMV/PGS
Codec ID/Info                            : Picture based subtitle format used on BDs/HD-DVDs
Duration                                 : 1 h 20 min
Bit rate                                 : 5 816 b/s
Count of elements                        : 986
Stream size                              : 3.35 MiB (0%)
Language                                 : English
Default                                  : No
Forced                                   : No

Text #3
ID                                       : 5
Format                                   : PGS
Muxing mode                              : zlib
Codec ID                                 : S_HDMV/PGS
Codec ID/Info                            : Picture based subtitle format used on BDs/HD-DVDs
Duration                                 : 1 h 26 min
Bit rate                                 : 5 464 b/s
Count of elements                        : 1006
Stream size                              : 3.38 MiB (0%)
Language                                 : Spanish
Default                                  : No
Forced                                   : No

Text #4
ID                                       : 6
Format                                   : PGS
Muxing mode                              : zlib
Codec ID                                 : S_HDMV/PGS
Codec ID/Info                            : Picture based subtitle format used on BDs/HD-DVDs
Duration                                 : 1 h 26 min
Bit rate                                 : 27.1 kb/s
Count of elements                        : 3214
Stream size                              : 16.7 MiB (0%)
Language                                 : English
Default                                  : No
Forced                                   : No

Text #5
ID                                       : 7
Format                                   : PGS
Muxing mode                              : zlib
Codec ID                                 : S_HDMV/PGS
Codec ID/Info                            : Picture based subtitle format used on BDs/HD-DVDs
Duration                                 : 1 h 23 min
Bit rate                                 : 25.9 kb/s
Count of elements                        : 3082
Stream size                              : 15.6 MiB (0%)
Language                                 : Spanish
Default                                  : No
Forced                                   : No

Menu
00:00:00.000                             : en:00:00:00.000
00:03:33.463                             : en:00:03:33.463
00:08:02.732                             : en:00:08:02.732
00:14:05.178                             : en:00:14:05.178
00:19:45.851                             : en:00:19:45.851
00:24:50.030                             : en:00:24:50.030
00:28:29.541                             : en:00:28:29.541
00:33:33.094                             : en:00:33:33.094
00:36:51.418                             : en:00:36:51.418
00:41:04.295                             : en:00:41:04.295
00:45:48.245                             : en:00:45:48.245
00:51:52.401                             : en:00:51:52.401
00:57:36.662                             : en:00:57:36.662
01:03:46.239                             : en:01:03:46.239
01:13:41.917                             : en:01:13:41.917
01:21:54.701                             : en:01:21:54.701

Скриншоты:



Все одноименные релизы в Клубе

Время раздачи: с 13:00 до 23:00
[NNMClub.to]_Dont.Breathe.2016.REMUX.BluRay.1080p.AVC.DTS-HD.MA5.1-iFT.mkv.torrent
 Торрент: Золотая раздача  Зарегистрирован
 
Примагнититься
Free Leech
Зарегистрируйтесь и скачайте торрент!
89,3 KB
 Зарегистрирован:   18 Ноя 2016 22:14:44
 Размер:   17,8 GB  (
 Рейтинг:   4,9 (Голосов: 10)
 Поблагодарили:   47
 Проверка:   Оформление проверено модератором 18 Ноя 2016 22:15:57
Как cкачать  ·  Как раздать  ·  Правильно оформить  ·  Поднять ратио!  
Dma321

Online
Стаж: 7 лет 8 мес.
Сообщений: 266
Ratio: 35,758
100%
russia.gif
Спасибо за супер-раздачу!
Это мегафильм.
Если посмотреть его хоть в японской озвучке, то всё равно на 99% сюжет будет ясен, как божий день!
Надеюсь, что этот фильм возьмёт много премий, ибо давненько не встречалось фильмов ужасов подобного уровня.
Показать сообщения:   
Начать новую тему   Ответить на тему    Торрент-трекер NNM-Club -> Зарубежное кино -> Фильмы в оригинале (HD) Часовой пояс: GMT + 3
Страница 1 из 1