Интеллигентный торрент-трекер
canvas not supported
Нас вместе: 4 100 019

Джейсон Борн / Jason Bourne (2016) BDRemux [H.264/1080p] [EN / Rus and others Sub]


 
 
RSS
Начать новую тему   Ответить на тему    Торрент-трекер NNM-Club -> Зарубежное кино -> Фильмы в оригинале (HD)
Автор Сообщение
smaster67 ®
Модератор Видео
Покровитель талантов Uploader 300+
Стаж: 7 лет 5 мес.
Сообщений: 6248
Ratio: 179,908
Поблагодарили: 173496
100%
Джейсон Борн / Jason Bourne (2016) BDRemux [H.264/1080p] [EN / Rus and others Sub]

Производство: Великобритания, Китай, США
Жанр: боевик, триллер

Режиссер: Пол Гринграсс
Актеры: Мэтт Дэймон, Алисия Викандер, Томми Ли Джонс, Венсан Кассель, Джулия Стайлз, Риз Ахмед, Ато Эссонда, Скотт Шеперд, Билл Кэмп, Винцец Кифер, Стефан Канкен, Бен Стиляну

Описание:
Мир на грани катастрофы, а значит пришло время ему вернуться. Неаполь, Мюнхен, Нью-Йорк - его имя знают повсюду. Элитный суперагент, лучший из лучших, даже в Лас-Вегасе игра пойдет по его правилам. Он - Джейсон Борн.



Продолжительность: 02:03:11
Качество видео: BDRemux
Перевод: Отсутствует
Язык озвучки: Английский
Язык субтитров: русский, английский, болгарский, китайский (кантонский), китайский (мандарин упрощенный), китайский (мандарин традиционный), хорватский, чешский, эстонский, греческий, иврит, венгерский, индонезийский, корейский, латышский, литовский, польский, португальский, румынский, словенский, испанский, тайский, украинский
Вид субтитров: Вшитые

Видео: AVC, 1920x1080 (16:9), 26885 kbps, 23,976 fps, 0,541 bpp
Аудио: английский / DTS-HD / 7.1 / 7387 kbps /
Код: выделить все
General
Unique ID                              Jason Bourne 2016 1080p Blu-ray Remux AVC DTS-X - KRaLiMaRKo\Jason Bourne 2016 1080p Blu-ray Remux AVC DTS-X - KRaLiMaRKo.mkv
Format                                   : Matroska
Format version                           : Version 4 / Version 2
File size                                : 29.9 GiB
Duration                                 : 2 h 3 min
Overall bit rate mode                    : Variable
Overall bit rate                         : 34.8 Mb/s
Movie name                               : Jason Bourne 2016 1080p Blu-ray Remux AVC DTS-X - KRaLiMaRKo
Encoded date                             : UTC 2016-11-18 17:35:59
Writing application                      : mkvmerge v9.5.0 ('Quiet Fire') 64bit
Writing library                          : libebml v1.3.4 + libmatroska v1.4.5

Video
ID                                       : 1
Format                                   : AVC
Format/Info                              : Advanced Video Codec
Format profile                           : High@L4.1
Format settings, CABAC                   : Yes
Format settings, ReFrames                : 4 frames
Codec ID                                 : V_MPEG4/ISO/AVC
Duration                                 : 2 h 3 min
Bit rate mode                            : Variable
Bit rate                                 : 26.9 Mb/s
Maximum bit rate                         : 30.0 Mb/s
Width                                    : 1 920 pixels
Height                                   : 1 080 pixels
Display aspect ratio                     : 16:9
Frame rate mode                          : Constant
Frame rate                               : 23.976 (24000/1001) FPS
Color space                              : YUV
Chroma subsampling                       : 4:2:0
Bit depth                                : 8 bits
Scan type                                : Progressive
Bits/(Pixel*Frame)                       : 0.541
Stream size                              : 23.1 GiB (77%)
Language                                 : English
Default                                  : Yes
Forced                                   : No

Audio
ID                                       : 2
Format                                   : DTS
Format/Info                              : Digital Theater Systems
Format profile                           : X / MA / Core
Mode                                     : 16
Format settings, Endianness              : Big
Codec ID                                 : A_DTS
Duration                                 : 2 h 3 min
Bit rate mode                            : Variable / Variable / Constant
Bit rate                                 : 7 388 kb/s / 7 388 kb/s / 1 509 kb/s
Channel(s)                               : Object Based / 8 channels / 6 channels
Channel positions                        : Object Based / Front: L C R, Side: L R, Back: L R, LFE / Front: L C R, Side: L R, LFE
Sampling rate                            :  / 48.0 kHz / 48.0 kHz
Frame rate                               : 93.750 FPS (512 spf)
Bit depth                                :  / 24 bits / 24 bits
Compression mode                         :  / Lossless / Lossy
Stream size                              : 6.36 GiB (21%)
Language                                 : English
Default                                  : Yes
Forced                                   : No

Text #1
ID                                       : 3
Format                                   : PGS
Codec ID                                 : S_HDMV/PGS
Codec ID/Info                            : Picture based subtitle format used on BDs/HD-DVDs
Duration                                 : 1 h 53 min
Bit rate                                 : 29.8 kb/s
Count of elements                        : 2490
Stream size                              : 24.1 MiB (0%)
Title                                    : SDH
Language                                 : English
Default                                  : No
Forced                                   : No

Text #2
ID                                       : 4
Format                                   : PGS
Codec ID                                 : S_HDMV/PGS
Codec ID/Info                            : Picture based subtitle format used on BDs/HD-DVDs
Duration                                 : 2 h 2 min
Bit rate                                 : 19.6 kb/s
Count of elements                        : 1564
Stream size                              : 17.2 MiB (0%)
Language                                 : Bulgarian
Default                                  : Yes
Forced                                   : No

Text #3
ID                                       : 5
Format                                   : PGS
Codec ID                                 : S_HDMV/PGS
Codec ID/Info                            : Picture based subtitle format used on BDs/HD-DVDs
Duration                                 : 2 h 2 min
Bit rate                                 : 16.3 kb/s
Count of elements                        : 2264
Stream size                              : 14.3 MiB (0%)
Title                                    : Cantonese
Language                                 : Chinese
Default                                  : No
Forced                                   : No

Text #4
ID                                       : 6
Format                                   : PGS
Codec ID                                 : S_HDMV/PGS
Codec ID/Info                            : Picture based subtitle format used on BDs/HD-DVDs
Duration                                 : 2 h 2 min
Bit rate                                 : 21.6 kb/s
Count of elements                        : 2282
Stream size                              : 18.9 MiB (0%)
Title                                    : Mandarin Simplified
Language                                 : Chinese
Default                                  : No
Forced                                   : No

Text #5
ID                                       : 7
Format                                   : PGS
Codec ID                                 : S_HDMV/PGS
Codec ID/Info                            : Picture based subtitle format used on BDs/HD-DVDs
Duration                                 : 2 h 2 min
Bit rate                                 : 18.8 kb/s
Count of elements                        : 2276
Stream size                              : 16.5 MiB (0%)
Title                                    : Mandarin Traditional
Language                                 : Chinese
Default                                  : No
Forced                                   : No

Text #6
ID                                       : 8
Format                                   : PGS
Codec ID                                 : S_HDMV/PGS
Codec ID/Info                            : Picture based subtitle format used on BDs/HD-DVDs
Duration                                 : 2 h 2 min
Bit rate                                 : 23.6 kb/s
Count of elements                        : 2272
Stream size                              : 20.6 MiB (0%)
Language                                 : Croatian
Default                                  : No
Forced                                   : No

Text #7
ID                                       : 9
Format                                   : PGS
Codec ID                                 : S_HDMV/PGS
Codec ID/Info                            : Picture based subtitle format used on BDs/HD-DVDs
Duration                                 : 2 h 2 min
Bit rate                                 : 21.9 kb/s
Count of elements                        : 1714
Stream size                              : 19.2 MiB (0%)
Language                                 : Czech
Default                                  : No
Forced                                   : No

Text #8
ID                                       : 10
Format                                   : PGS
Codec ID                                 : S_HDMV/PGS
Codec ID/Info                            : Picture based subtitle format used on BDs/HD-DVDs
Duration                                 : 2 h 2 min
Bit rate                                 : 20.4 kb/s
Count of elements                        : 2205
Stream size                              : 17.9 MiB (0%)
Language                                 : Estonian
Default                                  : No
Forced                                   : No

Text #9
ID                                       : 11
Format                                   : PGS
Codec ID                                 : S_HDMV/PGS
Codec ID/Info                            : Picture based subtitle format used on BDs/HD-DVDs
Duration                                 : 2 h 2 min
Bit rate                                 : 26.8 kb/s
Count of elements                        : 2231
Stream size                              : 23.5 MiB (0%)
Language                                 : Greek
Default                                  : No
Forced                                   : No

Text #10
ID                                       : 12
Format                                   : PGS
Codec ID                                 : S_HDMV/PGS
Codec ID/Info                            : Picture based subtitle format used on BDs/HD-DVDs
Duration                                 : 2 h 2 min
Bit rate                                 : 16.8 kb/s
Count of elements                        : 2279
Stream size                              : 14.7 MiB (0%)
Language                                 : Hebrew
Default                                  : No
Forced                                   : No

Text #11
ID                                       : 13
Format                                   : PGS
Codec ID                                 : S_HDMV/PGS
Codec ID/Info                            : Picture based subtitle format used on BDs/HD-DVDs
Duration                                 : 2 h 2 min
Bit rate                                 : 24.9 kb/s
Count of elements                        : 2251
Stream size                              : 21.8 MiB (0%)
Language                                 : Hungarian
Default                                  : No
Forced                                   : No

Text #12
ID                                       : 14
Format                                   : PGS
Codec ID                                 : S_HDMV/PGS
Codec ID/Info                            : Picture based subtitle format used on BDs/HD-DVDs
Duration                                 : 2 h 2 min
Bit rate                                 : 23.6 kb/s
Count of elements                        : 2194
Stream size                              : 20.6 MiB (0%)
Language                                 : Indonesian
Default                                  : No
Forced                                   : No

Text #13
ID                                       : 15
Format                                   : PGS
Codec ID                                 : S_HDMV/PGS
Codec ID/Info                            : Picture based subtitle format used on BDs/HD-DVDs
Duration                                 : 2 h 2 min
Bit rate                                 : 14.3 kb/s
Count of elements                        : 2234
Stream size                              : 12.5 MiB (0%)
Language                                 : Korean
Default                                  : No
Forced                                   : No

Text #14
ID                                       : 16
Format                                   : PGS
Codec ID                                 : S_HDMV/PGS
Codec ID/Info                            : Picture based subtitle format used on BDs/HD-DVDs
Duration                                 : 2 h 2 min
Bit rate                                 : 21.5 kb/s
Count of elements                        : 2308
Stream size                              : 18.8 MiB (0%)
Language                                 : Latvian
Default                                  : No
Forced                                   : No

Text #15
ID                                       : 17
Format                                   : PGS
Codec ID                                 : S_HDMV/PGS
Codec ID/Info                            : Picture based subtitle format used on BDs/HD-DVDs
Duration                                 : 2 h 2 min
Bit rate                                 : 25.9 kb/s
Count of elements                        : 2270
Stream size                              : 22.6 MiB (0%)
Language                                 : Lithuanian
Default                                  : No
Forced                                   : No

Text #16
ID                                       : 18
Format                                   : PGS
Codec ID                                 : S_HDMV/PGS
Codec ID/Info                            : Picture based subtitle format used on BDs/HD-DVDs
Duration                                 : 2 h 2 min
Bit rate                                 : 21.7 kb/s
Count of elements                        : 1977
Stream size                              : 19.0 MiB (0%)
Language                                 : Polish
Default                                  : No
Forced                                   : No

Text #17
ID                                       : 19
Format                                   : PGS
Codec ID                                 : S_HDMV/PGS
Codec ID/Info                            : Picture based subtitle format used on BDs/HD-DVDs
Duration                                 : 2 h 2 min
Bit rate                                 : 20.2 kb/s
Count of elements                        : 2220
Stream size                              : 17.6 MiB (0%)
Title                                    : Brazilian
Language                                 : Portuguese
Default                                  : No
Forced                                   : No

Text #18
ID                                       : 20
Format                                   : PGS
Codec ID                                 : S_HDMV/PGS
Codec ID/Info                            : Picture based subtitle format used on BDs/HD-DVDs
Duration                                 : 2 h 2 min
Bit rate                                 : 21.9 kb/s
Count of elements                        : 1980
Stream size                              : 19.2 MiB (0%)
Language                                 : Romanian
Default                                  : No
Forced                                   : No

Text #19
ID                                       : 21
Format                                   : PGS
Codec ID                                 : S_HDMV/PGS
Codec ID/Info                            : Picture based subtitle format used on BDs/HD-DVDs
Duration                                 : 2 h 2 min
Bit rate                                 : 23.1 kb/s
Count of elements                        : 1882
Stream size                              : 20.3 MiB (0%)
Language                                 : Russian
Default                                  : No
Forced                                   : No

Text #20
ID                                       : 22
Format                                   : PGS
Codec ID                                 : S_HDMV/PGS
Codec ID/Info                            : Picture based subtitle format used on BDs/HD-DVDs
Duration                                 : 2 h 2 min
Bit rate                                 : 18.6 kb/s
Count of elements                        : 2097
Stream size                              : 16.3 MiB (0%)
Language                                 : Slovenian
Default                                  : No
Forced                                   : No

Text #21
ID                                       : 23
Format                                   : PGS
Codec ID                                 : S_HDMV/PGS
Codec ID/Info                            : Picture based subtitle format used on BDs/HD-DVDs
Duration                                 : 2 h 2 min
Bit rate                                 : 24.6 kb/s
Count of elements                        : 2261
Stream size                              : 21.5 MiB (0%)
Title                                    : Latin American
Language                                 : Spanish
Default                                  : No
Forced                                   : No

Text #22
ID                                       : 24
Format                                   : PGS
Codec ID                                 : S_HDMV/PGS
Codec ID/Info                            : Picture based subtitle format used on BDs/HD-DVDs
Duration                                 : 2 h 2 min
Bit rate                                 : 19.4 kb/s
Count of elements                        : 2285
Stream size                              : 17.0 MiB (0%)
Language                                 : Thai
Default                                  : No
Forced                                   : No

Text #23
ID                                       : 25
Format                                   : PGS
Codec ID                                 : S_HDMV/PGS
Codec ID/Info                            : Picture based subtitle format used on BDs/HD-DVDs
Duration                                 : 2 h 2 min
Bit rate                                 : 24.6 kb/s
Count of elements                        : 2283
Stream size                              : 21.5 MiB (0%)
Language                                 : Ukrainian
Default                                  : No
Forced                                   : No

Menu
00:00:00.000                             : en:00:00:00.000
00:04:04.661                             : en:00:04:04.661
00:08:21.543                             : en:00:08:21.543
00:13:32.687                             : en:00:13:32.687
00:18:28.316                             : en:00:18:28.316
00:24:07.237                             : en:00:24:07.237
00:29:21.259                             : en:00:29:21.259
00:36:15.548                             : en:00:36:15.548
00:42:20.663                             : en:00:42:20.663
00:48:22.441                             : en:00:48:22.441
00:55:12.184                             : en:00:55:12.184
01:01:09.666                             : en:01:01:09.666
01:08:32.483                             : en:01:08:32.483
01:16:23.329                             : en:01:16:23.329
01:24:45.330                             : en:01:24:45.330
01:29:06.550                             : en:01:29:06.550
01:37:52.909                             : en:01:37:52.909
01:44:26.343                             : en:01:44:26.343
01:48:03.727                             : en:01:48:03.727
01:54:01.209                             : en:01:54:01.209

Скриншоты:



Все одноименные релизы в Клубе

Время раздачи: с 13:00 до 23:00
[NNMClub.to]_Jason Bourne 2016 1080p Blu-ray Remux AVC DTS-X - KRaLiMaRKo.mkv.torrent
 Торрент: Золотая раздача  Зарегистрирован
 
Примагнититься
Free Leech
Зарегистрируйтесь и скачайте торрент!
150 KB
 Зарегистрирован:   18 Ноя 2016 23:50:04
 Размер:   29,9 GB  (
 Рейтинг:    (Голосов: 3)
 Поблагодарили:   41
 Проверка:   Оформление проверено модератором 18 Ноя 2016 23:51:55
Как cкачать  ·  Как раздать  ·  Правильно оформить  ·  Поднять ратио!  
max030
Стаж: 7 лет 3 мес.
Сообщений: 14
Ratio: 5,848
1.67%
russia.gif
озвучка английская, жесть
Показать сообщения:   
Начать новую тему   Ответить на тему    Торрент-трекер NNM-Club -> Зарубежное кино -> Фильмы в оригинале (HD) Часовой пояс: GMT + 3
Страница 1 из 1