Интеллигентный торрент-трекер
canvas not supported
Нас вместе: 4 107 038

Моррис из Америки / Morris from America (2016) BDRip [H.264/1080p] [EN]


 
 
RSS
Начать новую тему   Ответить на тему    Торрент-трекер NNM-Club -> Зарубежное кино -> Фильмы в оригинале (HD)
Автор Сообщение
smaster67 ®
Модератор Видео
Покровитель талантов Uploader 300+
Стаж: 7 лет 5 мес.
Сообщений: 6265
Ratio: 180,344
Поблагодарили: 174030
100%
Моррис из Америки / Morris from America (2016) BDRip [H.264/1080p] [EN]

Производство: Германия, США
Жанр: драма, мелодрама, комедия

Режиссер: Чед Хартиган
Актеры: Крэйг Робинсон, Марксис Крисмас, Карла Юри, Лина Келлер, Якуб Гершал, Левин Хеннинг, Патрик Гюльденберг, Ева Лёбау, Леон Баденхоп, Мари Лешхорн

Описание:
13-летний Моррис переезжает с отцом в Гейдельберг. В стране, полностью чуждой ему, он влюбляется в местную девушку. Завязавшаяся между ними дружба отправляет Морриса в путешествие самопознания, тем самым дав ему возможность лучше понять недавно овдовевшего отца.



Продолжительность: 01:30:43
Качество видео: BDRip 1080p
Перевод: Отсутствует
Язык озвучки: Английский

Видео: AVC, 1920x1040 (1.85:1), 8840 kbps, 23,976 fps, 0,185 bpp
Аудио: английский / DTS / 5.1 / 48 kHz / 1509 kbps / 24 bit
Код: выделить все
General
Unique ID
Complete name                         Morris from America.2016.1080p.mkv
Format                                   : Matroska
Format version                           : Version 4 / Version 2
File size                                : 6.56 GiB
Duration                                 : 1 h 30 min
Overall bit rate                         : 10.3 Mb/s
Encoded date                             : UTC 2016-11-18 23:54:08
Writing application                      : mkvmerge v8.6.1 ('Flying') 64bit
Writing library                          : libebml v1.3.3 + libmatroska v1.4.4

Video
ID                                       : 1
Format                                   : AVC
Format/Info                              : Advanced Video Codec
Format profile                           : High@L4.1
Format settings, CABAC                   : Yes
Format settings, ReFrames                : 4 frames
Codec ID                                 : V_MPEG4/ISO/AVC
Duration                                 : 1 h 30 min
Bit rate                                 : 8 840 kb/s
Width                                    : 1 920 pixels
Height                                   : 1 040 pixels
Display aspect ratio                     : 1.85:1
Frame rate mode                          : Constant
Frame rate                               : 23.976 FPS
Color space                              : YUV
Chroma subsampling                       : 4:2:0
Bit depth                                : 8 bits
Scan type                                : Progressive
Bits/(Pixel*Frame)                       : 0.185
Stream size                              : 5.60 GiB (85%)
Writing library                          : x264 core 148 r2705 3f5ed56
Encoding settings                        : cabac=1 / ref=4 / deblock=1:0:0 / analyse=0x3:0x133 / me=umh / subme=7 / psy=1 / psy_rd=1.00:0.00 / mixed_ref=1 / me_range=16 / chroma_me=1 / trellis=1 / 8x8dct=1 / cqm=0 / deadzone=21,11 / fast_pskip=0 / chroma_qp_offset=-2 / threads=12 / lookahead_threads=2 / sliced_threads=0 / nr=0 / decimate=1 / interlaced=0 / bluray_compat=0 / constrained_intra=0 / bframes=3 / b_pyramid=2 / b_adapt=2 / b_bias=0 / direct=3 / weightb=1 / open_gop=0 / weightp=2 / keyint=250 / keyint_min=23 / scenecut=40 / intra_refresh=0 / rc_lookahead=50 / rc=2pass / mbtree=1 / bitrate=8840 / ratetol=1.0 / qcomp=0.60 / qpmin=0 / qpmax=69 / qpstep=4 / cplxblur=20.0 / qblur=0.5 / ip_ratio=1.40 / aq=1:1.00
Language                                 : English
Default                                  : Yes
Forced                                   : No

Audio
ID                                       : 2
Format                                   : DTS
Format/Info                              : Digital Theater Systems
Mode                                     : 16
Format settings, Endianness              : Big
Codec ID                                 : A_DTS
Duration                                 : 1 h 30 min
Bit rate mode                            : Constant
Bit rate                                 : 1 509 kb/s
Channel(s)                               : 6 channels
Channel positions                        : Front: L C R, Side: L R, LFE
Sampling rate                            : 48.0 kHz
Frame rate                               : 93.750 FPS (512 spf)
Bit depth                                : 24 bits
Compression mode                         : Lossy
Stream size                              : 979 MiB (15%)
Language                                 : English
Default                                  : Yes
Forced                                   : No

Menu
00:00:00.000                             : en:00:00:00.000
00:03:43.390                             : en:00:03:43.390
00:11:48.958                             : en:00:11:48.958
00:19:18.574                             : en:00:19:18.574
00:26:18.619                             : en:00:26:18.619
00:32:13.723                             : en:00:32:13.723
00:37:09.102                             : en:00:37:09.102
00:42:41.893                             : en:00:42:41.893
00:51:45.019                             : en:00:51:45.019
00:57:13.805                             : en:00:57:13.805
01:01:27.809                             : en:01:01:27.809
01:06:01.624                             : en:01:06:01.624
01:11:22.111                             : en:01:11:22.111
01:14:34.720                             : en:01:14:34.720
01:18:10.853                             : en:01:18:10.853
01:23:14.615                             : en:01:23:14.615

Скриншоты:



Все одноименные релизы в Клубе

Время раздачи: с 13:00 до 23:00
[NNMClub.to]_Morris from America.2016.1080p.mkv.torrent
 Торрент: Золотая раздача  Зарегистрирован
 
Примагнититься
Free Leech
Зарегистрируйтесь и скачайте торрент!
33 KB
 Зарегистрирован:   19 Ноя 2016 08:51:53
 Размер:   6,56 GB  (
 Рейтинг:    (Голосов: 4)
 Поблагодарили:   22
 Проверка:   Оформление проверено модератором 19 Ноя 2016 08:52:11
Как cкачать  ·  Как раздать  ·  Правильно оформить  ·  Поднять ратио!  
bim86
Стаж: 1 год 11 мес.
Сообщений: 134
Ratio: 13,164
Раздал: 6,268 TB
100%
Откуда: Башкирия
russia.gif
Ждём перевода, фильм вроде не плохой... Спасибо раздающему...
Показать сообщения:   
Начать новую тему   Ответить на тему    Торрент-трекер NNM-Club -> Зарубежное кино -> Фильмы в оригинале (HD) Часовой пояс: GMT + 3
Страница 1 из 1