Интеллигентный торрент-трекер
canvas not supported
Нас вместе: 4 102 521

Йоганутые / Yoga Hosers (2016) BDRip [H.264/1080p] [EN]


 
 
RSS
Начать новую тему   Ответить на тему    Торрент-трекер NNM-Club -> Зарубежное кино -> Фильмы в оригинале (HD)
Автор Сообщение
smaster67 ®
Модератор Видео
Покровитель талантов Uploader 300+
Стаж: 7 лет 5 мес.
Сообщений: 6254
Ratio: 180,024
Поблагодарили: 173676
100%
Йоганутые / Yoga Hosers (2016) BDRip [H.264/1080p] [EN]

Производство: США
Жанр: ужасы, фэнтези, триллер, комедия

Режиссер: Кевин Смит
Актеры: Лили-Роуз Мелоди Депп, Харли Куинн Смит, Ванесса Паради, Остин Роберт Батлер, Тайлер Пози, Джонни Депп, Джастин Лонг, Ральф Гармен, Хэйли Джоэл Осмент, Дженезис Родригез, Харли Моренштейн, Тони Хейл

Описание:
Колин Колетт и Колин МакКензи из Манитобы помешаны на йоге. В то же время они вынуждены подрабатывать после школы в небольшом магазинчике, и эту работу они терпеть не могут. Однако долго скучать школьницам не приходится: «вселенское зло», возникшее в прямом смысле слова «из-под земли», грозит им сорвать долгожданную вечеринку для старшеклассников. Тогда девушки объединяются с охотником за головами - Ги Ла Пойнтом, чтобы бороться с демонами зла с помощью всех «семи чакр и одной позы воина».



Продолжительность: 01:27:37
Качество видео: BDRip 1080p
Перевод: Отсутствует
Язык озвучки: Английский

Видео: AVC, 1920x808 (2.40:1), 10266 kbps, 23,976 fps, 0,276 bpp
Аудио: английский / AC3 / 5.1 / 48 kHz / 448 kbps /
Код: выделить все
General
Unique ID                              Yoga.Hosers.2016.1080p.mkv
Format                                   : Matroska
Format version                           : Version 4 / Version 2
File size                                : 6.56 GiB
Duration                                 : 1 h 27 min
Overall bit rate                         : 10.7 Mb/s
Encoded date                             : UTC 2016-11-19 03:33:12
Writing application                      : mkvmerge v8.3.0 ('Over the Horizon') 64bit
Writing library                          : libebml v1.3.1 + libmatroska v1.4.2

Video
ID                                       : 1
Format                                   : AVC
Format/Info                              : Advanced Video Codec
Format profile                           : High@L4.1
Format settings, CABAC                   : Yes
Format settings, ReFrames                : 5 frames
Codec ID                                 : V_MPEG4/ISO/AVC
Duration                                 : 1 h 27 min
Bit rate                                 : 10.3 Mb/s
Width                                    : 1 920 pixels
Height                                   : 808 pixels
Display aspect ratio                     : 2.40:1
Frame rate mode                          : Constant
Frame rate                               : 23.976 FPS
Color space                              : YUV
Chroma subsampling                       : 4:2:0
Bit depth                                : 8 bits
Scan type                                : Progressive
Bits/(Pixel*Frame)                       : 0.276
Stream size                              : 6.28 GiB (96%)
Writing library                          : x264 core 148 r2705 3f5ed56
Encoding settings                        : cabac=1 / ref=5 / deblock=1:0:0 / analyse=0x3:0x133 / me=umh / subme=7 / psy=1 / psy_rd=1.00:0.00 / mixed_ref=1 / me_range=16 / chroma_me=1 / trellis=1 / 8x8dct=1 / cqm=0 / deadzone=21,11 / fast_pskip=0 / chroma_qp_offset=-2 / threads=18 / lookahead_threads=3 / sliced_threads=0 / nr=0 / decimate=1 / interlaced=0 / bluray_compat=0 / constrained_intra=0 / bframes=3 / b_pyramid=2 / b_adapt=1 / b_bias=0 / direct=1 / weightb=1 / open_gop=0 / weightp=2 / keyint=250 / keyint_min=23 / scenecut=40 / intra_refresh=0 / rc_lookahead=40 / rc=2pass / mbtree=1 / bitrate=10266 / ratetol=1.0 / qcomp=0.60 / qpmin=0 / qpmax=69 / qpstep=4 / cplxblur=20.0 / qblur=0.5 / ip_ratio=1.40 / aq=1:1.00
Language                                 : English
Default                                  : Yes
Forced                                   : No

Audio
ID                                       : 2
Format                                   : AC-3
Format/Info                              : Audio Coding 3
Mode extension                           : CM (complete main)
Format settings, Endianness              : Big
Codec ID                                 : A_AC3
Duration                                 : 1 h 27 min
Bit rate mode                            : Constant
Bit rate                                 : 448 kb/s
Channel(s)                               : 6 channels
Channel positions                        : Front: L C R, Side: L R, LFE
Sampling rate                            : 48.0 kHz
Frame rate                               : 31.250 FPS (1536 spf)
Compression mode                         : Lossy
Stream size                              : 281 MiB (4%)
Language                                 : English
Default                                  : Yes
Forced                                   : No

Menu
00:00:00.000                             : en:00:00:00.000
00:18:42.371                             : en:00:18:42.371
00:38:27.305                             : en:00:38:27.305
00:53:03.180                             : en:00:53:03.180
01:01:08.665                             : en:01:01:08.665
01:17:45.286                             : en:01:17:45.286
01:20:11.682                             : en:01:20:11.682

Скриншоты:



Все одноименные релизы в Клубе

Время раздачи: с 13:00 до 23:00
[NNMClub.to]_Yoga.Hosers.2016.1080p.mkv.torrent
 Торрент: Золотая раздача  Зарегистрирован
 
Примагнититься
Free Leech
Зарегистрируйтесь и скачайте торрент!
33 KB
 Зарегистрирован:   19 Ноя 2016 10:10:32
 Размер:   6,56 GB  (
 Рейтинг:    (Голосов: 9)
 Поблагодарили:   47
 Проверка:   Оформление проверено модератором 19 Ноя 2016 10:10:55
Как cкачать  ·  Как раздать  ·  Правильно оформить  ·  Поднять ратио!  
casmen23
Стаж: 2 года 2 мес.
Сообщений: 53
Ratio: 5,408
Раздал: 601 GB
91.26%
Что употребляли авторы сего фильма и сам сюжет , как тяжёлая наркомания ))
AlexM​etale​x​
Стаж: 5 лет 8 мес.
Сообщений: 22
Ratio: 129,205
Раздал: 83,8 TB
100%
nnm-club.gif
casmen23 писал(а): Перейти к сообщению
Что употребляли авторы сего фильма и сам сюжет , как тяжёлая наркомания ))

Как и все фильмы Кевина.
nabl1
Стаж: 2 года 4 мес.
Сообщений: 29
Ratio: 2,285
100%
а мне понравилось, тонкий треш и стеб (в том числе на наших правителей)
koldozer
Стаж: 4 мес. 6 дней
Сообщений: 6
Ratio: 1,239
50%
russia.gif
Лили-Роуз Мелоди Депп - дочь Джонни Деппа и французской певицы и актрисы Ванессы Паради.
Все в фильме поучаствовали.
Rusla​n.1st​r​
Стаж: 6 лет 5 мес.
Сообщений: 3
Ratio: 8,55
10.67%
russia.gif
"Бивень" был хорош. Это тоже можно посмотреть. Треш как треш
Показать сообщения:   
Начать новую тему   Ответить на тему    Торрент-трекер NNM-Club -> Зарубежное кино -> Фильмы в оригинале (HD) Часовой пояс: GMT + 3
Страница 1 из 1