Интеллигентный торрент-трекер
canvas not supported
Нас вместе: 4 119 202

Боксер-марионетка / Cardboard Boxer (2016) BDRemux [H.264/1080p] [EN / EN Sub]


 
 
RSS
Начать новую тему   Ответить на тему    Торрент-трекер NNM-Club -> Зарубежное кино -> Фильмы в оригинале (HD)
Автор Сообщение
smaster67 ®
Модератор Видео
Покровитель талантов Uploader 300+
Стаж: 7 лет 5 мес.
Сообщений: 6280
Ratio: 181,241
Поблагодарили: 174929
100%
Боксер-марионетка / Cardboard Boxer (2016) BDRemux [H.264/1080p] [EN / EN Sub]

Производство: США
Жанр: драма

Режиссер: Кнейт Гуолтни
Актеры: Томас Хейден Чёрч, Терренс Ховард, Бойд Холбрук, Риз Уэйкфилд, Марло Томас, Дэвид Генри, Мейси Грэй, Жослин Андерсон, Сет Бэйли, Оскар Бест, Джоанна Э. Брэдди

Описание:
Фильм «Боксер-марионетка» (Cardboard Boxer), созданный Кнейтом Гуолтни при участии актеров Томаса Хэйдена Черча и Терренса Ховарда, рассказывает историю бездомного, находящего свое призвание в том, чтобы начать борьбу с группой богатых отпрысков известных семейств, использующих обездоленных людей в своих целях.
Но такое положение вещей не устраивает новоявленных «хозяев жизни». Впрочем, тот, кому уже нечего терять, вряд ли испугается мести со стороны зарвавшихся юнцов. Герой решает идти до конца, и на этом пути у него неожиданно обнаруживаются единомышленники, готовые встать плечом к плечу ради достижения общей цели.



Продолжительность: 01:28:39
Качество видео: BDRemux
Перевод: Отсутствует
Язык озвучки: Английский
Язык субтитров: английский
Вид субтитров: Вшитые

Видео: AVC, 1920x1080 (16:9), 27975 kbps, 23,976 fps, 0,563 bpp
Аудио: английский / DTS-HD / 5.1 / 48 kHz / 2309 kbps / 16 bit (Core: 5.1 / 48 kHz / 1509 kbps / 16 bit)
Код: выделить все
General
Unique ID                             Cardboard Boxer 2016 1080p Blu-ray Remux AVC DTS-HD MA 5.1 - KRaLiMaRKo\Cardboard Boxer 2016 1080p Blu-ray Remux AVC DTS-HD MA 5.1 - KRaLiMaRKo.mkv
Format                                   : Matroska
Format version                           : Version 4 / Version 2
File size                                : 18.8 GiB
Duration                                 : 1 h 28 min
Overall bit rate mode                    : Variable
Overall bit rate                         : 30.3 Mb/s
Movie name                               : Cardboard Boxer 2016 1080p Blu-ray Remux AVC DTS-HD MA 5.1 - KRaLiMaRKo
Encoded date                             : UTC 2016-11-18 22:41:39
Writing application                      : mkvmerge v9.5.0 ('Quiet Fire') 64bit
Writing library                          : libebml v1.3.4 + libmatroska v1.4.5

Video
ID                                       : 1
Format                                   : AVC
Format/Info                              : Advanced Video Codec
Format profile                           : High@L4.1
Format settings, CABAC                   : Yes
Format settings, ReFrames                : 4 frames
Codec ID                                 : V_MPEG4/ISO/AVC
Duration                                 : 1 h 28 min
Bit rate mode                            : Variable
Bit rate                                 : 28.0 Mb/s
Maximum bit rate                         : 35.0 Mb/s
Width                                    : 1 920 pixels
Height                                   : 1 080 pixels
Display aspect ratio                     : 16:9
Frame rate mode                          : Constant
Frame rate                               : 23.976 (24000/1001) FPS
Standard                                 : NTSC
Color space                              : YUV
Chroma subsampling                       : 4:2:0
Bit depth                                : 8 bits
Scan type                                : Progressive
Bits/(Pixel*Frame)                       : 0.563
Stream size                              : 17.3 GiB (92%)
Language                                 : English
Default                                  : Yes
Forced                                   : No
Color range                              : Limited
Color primaries                          : BT.709
Transfer characteristics                 : BT.709
Matrix coefficients                      : BT.709

Audio
ID                                       : 2
Format                                   : DTS
Format/Info                              : Digital Theater Systems
Format profile                           : MA / Core
Mode                                     : 16
Format settings, Endianness              : Big
Codec ID                                 : A_DTS
Duration                                 : 1 h 28 min
Bit rate mode                            : Variable / Constant
Bit rate                                 : 2 309 kb/s / 1 509 kb/s
Channel(s)                               : 6 channels
Channel positions                        : Front: L C R, Side: L R, LFE
Sampling rate                            : 48.0 kHz
Frame rate                               : 93.750 FPS (512 spf)
Bit depth                                : 16 bits
Compression mode                         : Lossless / Lossy
Stream size                              : 1.43 GiB (8%)
Language                                 : English
Default                                  : Yes
Forced                                   : No

Text
ID                                       : 3
Format                                   : PGS
Codec ID                                 : S_HDMV/PGS
Codec ID/Info                            : Picture based subtitle format used on BDs/HD-DVDs
Duration                                 : 1 h 25 min
Bit rate                                 : 29.2 kb/s
Count of elements                        : 1880
Stream size                              : 17.9 MiB (0%)
Language                                 : English
Default                                  : No
Forced                                   : No

Menu
00:00:00.000                             : en:00:00:00.000
00:09:18.516                             : en:00:09:18.516
00:17:46.983                             : en:00:17:46.983
00:24:05.527                             : en:00:24:05.527
00:34:31.319                             : en:00:34:31.319
00:45:44.367                             : en:00:45:44.367
00:56:17.749                             : en:00:56:17.749
01:04:51.930                             : en:01:04:51.930
01:11:18.191                             : en:01:11:18.191
01:17:30.688                             : en:01:17:30.688
01:25:40.177                             : en:01:25:40.177

Скриншоты:



Все одноименные релизы в Клубе

Время раздачи: с 13:00 до 23:00
[NNMClub.to]_Cardboard Boxer 2016 1080p Blu-ray Remux AVC DTS-HD MA 5.1 - KRaLiMaRKo.mkv.torrent
 Торрент: Золотая раздача  Зарегистрирован
 
Примагнититься
Free Leech
Зарегистрируйтесь и скачайте торрент!
94,1 KB
 Зарегистрирован:   19 Ноя 2016 14:28:40
 Размер:   18,8 GB  (
 Рейтинг:    (Голосов: 7)
 Поблагодарили:   38
 Проверка:   Оформление проверено модератором 19 Ноя 2016 14:29:43
Как cкачать  ·  Как раздать  ·  Правильно оформить  ·  Поднять ратио!  
zhele​zkunc​hik​
Стаж: 4 года 6 мес.
Сообщений: 6
Ratio: 3,971
0.76%
отпишитесь как фильм
Показать сообщения:   
Начать новую тему   Ответить на тему    Торрент-трекер NNM-Club -> Зарубежное кино -> Фильмы в оригинале (HD) Часовой пояс: GMT + 3
Страница 1 из 1