Интеллигентный торрент-трекер
canvas not supported
Нас вместе: 4 112 220

Только правда / The Whole Truth (2016) BDRip [H.264/1080p] [EN]


 
 
RSS
Начать новую тему   Ответить на тему    Торрент-трекер NNM-Club -> Зарубежное кино -> Фильмы в оригинале (HD)
Автор Сообщение
smaster67 ®
Модератор Видео
Покровитель талантов Uploader 300+
Стаж: 7 лет 5 мес.
Сообщений: 6275
Ratio: 180,784
Поблагодарили: 174391
100%
Только правда / The Whole Truth (2016) BDRip [H.264/1080p] [EN]

Производство: США
Жанр: триллер, драма

Режиссер: Кортни Хант
Актеры: Киану Ривз, Рене Зеллвегер, Гугу Эмбата-Ро, Гэбриел Бассо, Джеймс Белуши, Джим Клок, Ричи Монтгомери, Кристофер Берри, Лара Грайс, Николь Барре, Лаки Джонсон, Линдсей Кимболл

Описание:
Адвокат пытается доказать невиновность клиента-подростка, которого обвиняют в убийстве богатого отца.



Продолжительность: 01:33:33
Качество видео: BDRip 1080p
Перевод: Отсутствует
Язык озвучки: Английский

Видео: AVC, 1920x816 (2.35:1), 10194 kbps, 23,976 fps, 0,271 bpp
Аудио: английский / DTS / 5.1 / 48 kHz / 1509 kbps / 24 bit
Код: выделить все
General
Unique ID                             The.Whole.Truth.2016.1080p.mkv
Format                                   : Matroska
Format version                           : Version 4 / Version 2
File size                                : 7.63 GiB
Duration                                 : 1 h 33 min
Overall bit rate                         : 11.7 Mb/s
Encoded date                             : UTC 2016-11-22 05:40:59
Writing application                      : mkvmerge v6.6.6 ('-=>FiCO<=- ') built on 7th Day of Doom...   oom...
Writing library                          : libebml v1.3.0 + libmatroska v1.4.1

Video
ID                                       : 1
Format                                   : AVC
Format/Info                              : Advanced Video Codec
Format profile                           : High@L4.1
Format settings, CABAC                   : Yes
Format settings, ReFrames                : 5 frames
Codec ID                                 : V_MPEG4/ISO/AVC
Duration                                 : 1 h 33 min
Bit rate                                 : 10.2 Mb/s
Width                                    : 1 920 pixels
Height                                   : 816 pixels
Display aspect ratio                     : 2.35:1
Frame rate mode                          : Constant
Frame rate                               : 23.976 (24000/1001) FPS
Color space                              : YUV
Chroma subsampling                       : 4:2:0
Bit depth                                : 8 bits
Scan type                                : Progressive
Bits/(Pixel*Frame)                       : 0.271
Stream size                              : 6.50 GiB (85%)
Writing library                          : x264 core 148 r2705 3f5ed56
Encoding settings                        : cabac=1 / ref=5 / deblock=1:0:0 / analyse=0x3:0x113 / me=umh / subme=8 / psy=1 / psy_rd=1.00:0.00 / mixed_ref=1 / me_range=16 / chroma_me=1 / trellis=1 / 8x8dct=1 / cqm=0 / deadzone=21,11 / fast_pskip=1 / chroma_qp_offset=-2 / threads=6 / lookahead_threads=1 / sliced_threads=0 / nr=0 / decimate=1 / interlaced=0 / bluray_compat=0 / constrained_intra=0 / bframes=3 / b_pyramid=2 / b_adapt=2 / b_bias=0 / direct=3 / weightb=1 / open_gop=0 / weightp=2 / keyint=250 / keyint_min=23 / scenecut=40 / intra_refresh=0 / rc_lookahead=50 / rc=2pass / mbtree=1 / bitrate=10194 / ratetol=1.0 / qcomp=0.60 / qpmin=0 / qpmax=69 / qpstep=4 / cplxblur=20.0 / qblur=0.5 / ip_ratio=1.40 / aq=1:1.00
Language                                 : English
Default                                  : Yes
Forced                                   : No

Audio
ID                                       : 2
Format                                   : DTS
Format/Info                              : Digital Theater Systems
Mode                                     : 16
Format settings, Endianness              : Big
Codec ID                                 : A_DTS
Duration                                 : 1 h 33 min
Bit rate mode                            : Constant
Bit rate                                 : 1 509 kb/s
Channel(s)                               : 6 channels
Channel positions                        : Front: L C R, Side: L R, LFE
Sampling rate                            : 48.0 kHz
Frame rate                               : 93.750 FPS (512 spf)
Bit depth                                : 24 bits
Compression mode                         : Lossy
Stream size                              : 1 010 MiB (13%)
Language                                 : English
Default                                  : Yes
Forced                                   : No

Скриншоты:



Все одноименные релизы в Клубе

Время раздачи: с 13:00 до 23:00
[NNMClub.to]_The.Whole.Truth.2016.1080p.mkv.torrent
 Торрент: Золотая раздача  Зарегистрирован
 
Примагнититься
Free Leech
Зарегистрируйтесь и скачайте торрент!
38,4 KB
 Зарегистрирован:   22 Ноя 2016 22:17:47
 Размер:   7,63 GB  (
 Рейтинг:    (Голосов: 7)
 Поблагодарили:   37
 Проверка:   Оформление проверено модератором 22 Ноя 2016 22:18:27
Как cкачать  ·  Как раздать  ·  Правильно оформить  ·  Поднять ратио!  
mzemze
Стаж: 9 лет 7 мес.
Сообщений: 91
Ratio: 0,995
Поблагодарили: 63
0.7%
Внимание скачивающим: рейтинг 6.1, а не 8.2, как написал релизер...
gapon​enko.​ao​
Стаж: 6 лет 11 мес.
Сообщений: 322
Ratio: 1,126
Поблагодарили: 2159
0.27%
mzemze писал(а): Перейти к сообщению
Внимание скачивающим: рейтинг 6.1, а не 8.2, как написал релизер...

причем это происходит регулярно. шрот выдают за кино с шорошим рейтингом. я считаю все что ниже 7 смотреть вообще не стоит
dimac​rash9​6​
Стаж: 1 год 5 мес.
Сообщений: 3
Ratio: 0,317
0.09%
Возможно, тем, кто любит экшн, фильм покажется несколько скучным, как и все фильмы про судебные процессы, но в своем жанре фильм стоящий!
Показать сообщения:   
Начать новую тему   Ответить на тему    Торрент-трекер NNM-Club -> Зарубежное кино -> Фильмы в оригинале (HD) Часовой пояс: GMT + 3
Страница 1 из 1