Интеллигентный торрент-трекер
canvas not supported
Нас вместе: 4 103 450

Останки / The Remains (2016) BDRip [H.264/720p] [EN]


 
 
RSS
Начать новую тему   Ответить на тему    Торрент-трекер NNM-Club -> Зарубежное кино -> Фильмы в оригинале (HD)
Автор Сообщение
smaster67 ®
Модератор Видео
Покровитель талантов Uploader 300+
Стаж: 7 лет 5 мес.
Сообщений: 6257
Ratio: 180,063
Поблагодарили: 173743
100%
Останки / The Remains (2016) BDRip [H.264/720p] [EN]

Производство: США
Жанр: ужасы, триллер

Режиссер: Томас Делла Белла
Актеры: Тодд Лоу, Никки Хан, Лиза Бреннер, Брук Батлер, Сэмюэл Ларсен, Эшли Кроу, Мария Олсен, Ханна Нордберг, Тава Смайли, Дэш Уильямс, Дженни Блонг, Кортни Каннингэм

Описание:
После переезда в старый викторианский дом семья обнаруживает на чердаке сундук с антикварными вещами, в которых заключен злой дух.



Продолжительность: 01:32:40
Качество видео: BDRip 720p
Перевод: Отсутствует
Язык озвучки: Английский

Видео: AVC, 1280x536 (2.40:1), 5234 kbps, 23,976 fps, 0,318 bpp
Аудио: английский / DTS / 5.1 / 48 kHz / 1509 kbps / 24 bit
Код: выделить все
General
Unique ID                              the.remains.2016.720p.mkv
Format                                   : Matroska
Format version                           : Version 4 / Version 2
File size                                : 4.37 GiB
Duration                                 : 1 h 32 min
Overall bit rate                         : 6 745 kb/s
Encoded date                             : UTC 2016-11-22 17:54:18
Writing application                      : mkvmerge v8.2.0 ('World of Adventure') 32bit
Writing library                          : libebml v1.3.1 + libmatroska v1.4.2

Video
ID                                       : 1
Format                                   : AVC
Format/Info                              : Advanced Video Codec
Format profile                           : High@L4.1
Format settings, CABAC                   : Yes
Format settings, ReFrames                : 5 frames
Codec ID                                 : V_MPEG4/ISO/AVC
Duration                                 : 1 h 32 min
Bit rate                                 : 5 234 kb/s
Width                                    : 1 280 pixels
Height                                   : 536 pixels
Display aspect ratio                     : 2.40:1
Frame rate mode                          : Constant
Frame rate                               : 23.976 (24000/1001) FPS
Color space                              : YUV
Chroma subsampling                       : 4:2:0
Bit depth                                : 8 bits
Scan type                                : Progressive
Bits/(Pixel*Frame)                       : 0.318
Stream size                              : 3.39 GiB (78%)
Writing library                          : x264 core 148 r2721 72d53ab
Encoding settings                        : cabac=1 / ref=5 / deblock=1:1:1 / analyse=0x3:0x133 / me=umh / subme=8 / psy=1 / psy_rd=1.00:0.00 / mixed_ref=1 / me_range=16 / chroma_me=1 / trellis=1 / 8x8dct=1 / cqm=0 / deadzone=21,11 / fast_pskip=0 / chroma_qp_offset=-2 / threads=17 / lookahead_threads=2 / sliced_threads=0 / nr=0 / decimate=1 / interlaced=0 / bluray_compat=0 / constrained_intra=0 / bframes=3 / b_pyramid=2 / b_adapt=2 / b_bias=0 / direct=3 / weightb=1 / open_gop=0 / weightp=2 / keyint=250 / keyint_min=23 / scenecut=40 / intra_refresh=0 / rc_lookahead=50 / rc=2pass / mbtree=1 / bitrate=5234 / ratetol=1.0 / qcomp=0.60 / qpmin=0 / qpmax=69 / qpstep=4 / cplxblur=20.0 / qblur=0.5 / ip_ratio=1.40 / aq=1:1.00
Language                                 : English
Default                                  : Yes
Forced                                   : No

Audio
ID                                       : 2
Format                                   : DTS
Format/Info                              : Digital Theater Systems
Mode                                     : 16
Format settings, Endianness              : Big
Codec ID                                 : A_DTS
Duration                                 : 1 h 32 min
Bit rate mode                            : Constant
Bit rate                                 : 1 509 kb/s
Channel(s)                               : 6 channels
Channel positions                        : Front: L C R, Side: L R, LFE
Sampling rate                            : 48.0 kHz
Frame rate                               : 93.750 FPS (512 spf)
Bit depth                                : 24 bits
Compression mode                         : Lossy
Stream size                              : 1 000 MiB (22%)
Language                                 : English
Default                                  : Yes
Forced                                   : No

Menu
00:00:00.000                             : en:00:00:00.000
00:08:20.166                             : en:00:08:20.166
00:16:01.669                             : en:00:16:01.669
00:22:53.247                             : en:00:22:53.247
00:31:05.947                             : en:00:31:05.947
00:41:12.178                             : en:00:41:12.178
00:49:25.796                             : en:00:49:25.796
00:57:39.706                             : en:00:57:39.706
01:08:16.592                             : en:01:08:16.592
01:14:44.146                             : en:01:14:44.146
01:24:17.594                             : en:01:24:17.594
01:31:13.134                             : en:01:31:13.134

Скриншоты:



Все одноименные релизы в Клубе

Время раздачи: с 13:00 до 23:00
[NNMClub.to]_the.remains.2016.720p.mkv.torrent
 Торрент: Серебряная раздча  Зарегистрирован
 
Примагнититься
Free Leech
Зарегистрируйтесь и скачайте торрент!
22 KB
 Зарегистрирован:   22 Ноя 2016 22:43:32
 Размер:   4,37 GB  (
 Рейтинг:    (Голосов: 5)
 Поблагодарили:   27
 Проверка:   Оформление проверено модератором 22 Ноя 2016 22:43:52
Как cкачать  ·  Как раздать  ·  Правильно оформить  ·  Поднять ратио!  
MARCUS800
Стаж: 1 год 9 мес.
Сообщений: 160
Ratio: 1,954
87.29%
ukraine.gif
Когда ожидается в качестве с русской дорожкой!?
Deni78
Стаж: 3 мес. 4 дня
Сообщений: 37
Ratio: 0,871
86.11%
MARCUS800 писал(а): Перейти к сообщению
Когда ожидается в качестве с русской дорожкой!?

Так это блюрей чем не качество ,на днях думаю переведут кошары или хихидок подсуетятся.
MARCUS800
Стаж: 1 год 9 мес.
Сообщений: 160
Ratio: 1,954
87.29%
ukraine.gif
Deni78 писал(а): Перейти к сообщению
MARCUS800 писал(а): Перейти к сообщению
Когда ожидается в качестве с русской дорожкой!?

Так это блюрей чем не качество ,на днях думаю переведут кошары или хихидок подсуетятся.
Видео отличное! А вот перевод профессиональный был бы, без всяких докторов! :(
James-123
Стаж: 6 лет 10 мес.
Сообщений: 14
Ratio: 6,944
4.26%
Очередная тварь из очередного сундука. Что ж, посмотрим.
Показать сообщения:   
Начать новую тему   Ответить на тему    Торрент-трекер NNM-Club -> Зарубежное кино -> Фильмы в оригинале (HD) Часовой пояс: GMT + 3
Страница 1 из 1