Интеллигентный торрент-трекер
canvas not supported
Нас вместе: 4 119 202

Дом напротив / The Neighbor (2016) BDRip [H.264/720p] [EN]


 
 
RSS
Начать новую тему   Ответить на тему    Торрент-трекер NNM-Club -> Зарубежное кино -> Фильмы в оригинале (HD)
Автор Сообщение
smaster67 ®
Модератор Видео
Покровитель талантов Uploader 300+
Стаж: 7 лет 5 мес.
Сообщений: 6280
Ratio: 181,241
Поблагодарили: 174929
100%
Дом напротив / The Neighbor (2016) BDRip [H.264/720p] [EN]

Производство: США
Жанр: ужасы, триллер, криминал

Режиссер: Маркус Данстэн
Актеры: Джош Стюарт, Билл Ингвалл, Ронни Джин Блевинс, Melissa Bolona, Люк Эдвардс, Александра Эссоу, Скипп Саддат, Жаклин Флеминг, Дэвид Каллауэй, Хезер Уильямс, Артриал Кларк

Описание:
Джон и Рози мечтают о счастливой жизни. Осталось закончить одно дело и можно оставить прошлое позади. Но у судьбы другие планы...
Однажды вернувшись домой, Джон обнаруживает, что Рози исчезла. В поисках пропавшей красотки Джон проникает в дом загадочного соседа. Там ему открываются страшные тайны, которые лучше не будоражить. Самые жуткие кошмары Джона покажутся детской забавой по сравнению с тем, что скрывается в этом доме…



Продолжительность: 01:26:59
Качество видео: BDRip 720p
Перевод: Отсутствует
Язык озвучки: Английский

Видео: AVC, 1280x536 (2.40:1), 5685 kbps, 23,976 fps, 0,346 bpp
Аудио: английский / DTS / 5.1 / 48 kHz / 1509 kbps / 24 bit
Код: выделить все
General
Unique ID                               The Neighbor.2016.720p.mkv
Format                                   : Matroska
Format version                           : Version 4 / Version 2
File size                                : 4.37 GiB
Duration                                 : 1 h 26 min
Overall bit rate                         : 7 188 kb/s
Encoded date                             : UTC 2016-11-22 17:59:30
Writing application                      : mkvmerge v8.2.0 ('World of Adventure') 32bit
Writing library                          : libebml v1.3.1 + libmatroska v1.4.2

Video
ID                                       : 1
Format                                   : AVC
Format/Info                              : Advanced Video Codec
Format profile                           : High@L4.1
Format settings, CABAC                   : Yes
Format settings, ReFrames                : 5 frames
Codec ID                                 : V_MPEG4/ISO/AVC
Duration                                 : 1 h 26 min
Bit rate                                 : 5 685 kb/s
Width                                    : 1 280 pixels
Height                                   : 536 pixels
Display aspect ratio                     : 2.40:1
Frame rate mode                          : Constant
Frame rate                               : 23.976 (24000/1001) FPS
Color space                              : YUV
Chroma subsampling                       : 4:2:0
Bit depth                                : 8 bits
Scan type                                : Progressive
Bits/(Pixel*Frame)                       : 0.346
Stream size                              : 3.45 GiB (79%)
Writing library                          : x264 core 148 r2705 3f5ed56
Encoding settings                        : cabac=1 / ref=5 / deblock=1:1:1 / analyse=0x3:0x133 / me=umh / subme=8 / psy=1 / psy_rd=1.00:0.00 / mixed_ref=1 / me_range=16 / chroma_me=1 / trellis=1 / 8x8dct=1 / cqm=0 / deadzone=21,11 / fast_pskip=0 / chroma_qp_offset=-2 / threads=17 / lookahead_threads=2 / sliced_threads=0 / nr=0 / decimate=1 / interlaced=0 / bluray_compat=0 / constrained_intra=0 / bframes=3 / b_pyramid=2 / b_adapt=2 / b_bias=0 / direct=3 / weightb=1 / open_gop=0 / weightp=2 / keyint=250 / keyint_min=23 / scenecut=40 / intra_refresh=0 / rc_lookahead=50 / rc=2pass / mbtree=1 / bitrate=5685 / ratetol=1.0 / qcomp=0.60 / qpmin=0 / qpmax=69 / qpstep=4 / cplxblur=20.0 / qblur=0.5 / ip_ratio=1.40 / aq=1:1.00
Language                                 : English
Default                                  : Yes
Forced                                   : No

Audio
ID                                       : 2
Format                                   : DTS
Format/Info                              : Digital Theater Systems
Mode                                     : 16
Format settings, Endianness              : Big
Codec ID                                 : A_DTS
Duration                                 : 1 h 26 min
Bit rate mode                            : Constant
Bit rate                                 : 1 509 kb/s
Channel(s)                               : 6 channels
Channel positions                        : Front: L C R, Side: L R, LFE
Sampling rate                            : 48.0 kHz
Frame rate                               : 93.750 FPS (512 spf)
Bit depth                                : 24 bits
Compression mode                         : Lossy
Stream size                              : 939 MiB (21%)
Language                                 : English
Default                                  : Yes
Forced                                   : No

Menu
00:00:00.000                             : en:00:00:00.000
00:08:05.485                             : en:00:08:05.485
00:15:12.328                             : en:00:15:12.328
00:22:33.769                             : en:00:22:33.769
00:28:50.312                             : en:00:28:50.312
00:37:03.972                             : en:00:37:03.972
00:47:26.427                             : en:00:47:26.427
00:52:43.660                             : en:00:52:43.660
01:00:28.166                             : en:01:00:28.166
01:09:35.421                             : en:01:09:35.421
01:17:19.009                             : en:01:17:19.009
01:22:54.428                             : en:01:22:54.428

Скриншоты:



Все одноименные релизы в Клубе

Время раздачи: с 13:00 до 23:00
[NNMClub.to]_The Neighbor.2016.720p.mkv.torrent
 Торрент: Серебряная раздча  Зарегистрирован
 
Примагнититься
Free Leech
Зарегистрируйтесь и скачайте торрент!
22 KB
 Зарегистрирован:   22 Ноя 2016 23:08:02
 Размер:   4,37 GB  (
 Рейтинг:    (Голосов: 3)
 Поблагодарили:   21
 Проверка:   Оформление проверено модератором 22 Ноя 2016 23:08:34
Как cкачать  ·  Как раздать  ·  Правильно оформить  ·  Поднять ратио!  
Vkhalikov
Стаж: 2 года
Сообщений: 4
Ratio: 5,684
38.66%
Хороший фильм, типо коллекционера
Показать сообщения:   
Начать новую тему   Ответить на тему    Торрент-трекер NNM-Club -> Зарубежное кино -> Фильмы в оригинале (HD) Часовой пояс: GMT + 3
Страница 1 из 1