Интеллигентный торрент-трекер
canvas not supported
Нас вместе: 4 114 227

Просто потрясающе / Absolutely Fabulous: The Movie (2016) BDRip [H.264/1080p] [Line]


 
 
RSS
Начать новую тему   Ответить на тему    Торрент-трекер NNM-Club -> Горячие новинки -> Новинки (HD)
Автор Сообщение
batonchik ®
Зам. Куратора Видео
RG Releasers
Котоаплоадер 4000+
 
Стаж: 8 лет 9 мес.
Сообщений: 23088
Ratio: 191K
Раздал: 4,2171 PB
Поблагодарили: 723744
100%
Откуда: из лесу
ussr.gif
Просто потрясающе / Absolutely Fabulous: The Movie (2016) BDRip [H.264/1080p]

Производство: Великобритания, США
Жанр: комедия, криминал

Режиссер: Мэнди Флетчер
Актеры: Лулу, Гвендолин Кристи, Дженнифер Сондерс, Джоанна Ламли, Джулия Савалия, Джейн Хоррокс, Джун Уитфилд, Мо Гаффни, Кристофер Райан, Марк Гейтисс, Грэм Нортон

Описание:
Эдина и Пэтси все еще источают гламур и блеск живя той красивой жизнью, к которой они так привыкли. Шоппинг, выпивохинг и клаббинг по всему Лондону, и в самых модных его частях. Обвиненные в инциденте на одном из модных показов, они оказываются в центре медийного шторма. Во избежания преследования папарацци они сбегают (попутно забыв деньги) на очень дорогую Французскую Ривьеру, с целью остаться здесь навсегда.


Рейтинг MPAA: R (лицам до 17 лет обязательно присутствие взрослого)
Дата мировой премьеры: 1 июля 2016

Релиз от: NNMClub
Продолжительность: 01:30:55
Качество видео: BDRip (DRONES)
Перевод: Многоголосый закадровый, профессиональный (Чистый звук)
Язык озвучки: Английский

Видео: AVC, 1920x808 (2.40:1), 8816 kbps, 23,976 fps, 0,237 bpp
Аудио 1: AC3, 2 ch, 384 kbps | русский - MVO
Аудио 2: DTS, 6 ch, 1509 kbps | английский
Код: выделить все
Общее
Полное имя                               :\Просто потрясающе_Absolutely Fabulous The Movie.2016.BDRip.1080p.NNMClub.mkv
Формат                                   : Matroska
Версия формата                           : Version 2
Размер файла                             : 6,80 Гбайт
Продолжительность                        : 1 ч. 30 м.
Общий поток                              : 10,7 Мбит/сек
Название фильма                          : Просто потрясающе_Absolutely Fabulous: The Movie.2016.BDRip..1080p.NNMClub
Дата кодирования                         : UTC 2016-11-23 20:54:47
Программа кодирования                    : mkvmerge v7.7.0 ('Six Voices') 64bit built on Feb 28 2015 23:39:33
Библиотека кодирования                   : libebml v1.3.1 + libmatroska v1.4.2

Видео
Идентификатор                            : 1
Формат                                   : AVC
Формат/Информация                        : Advanced Video Codec
Профиль формата                          : High@L4.1
Параметр CABAC формата                   : Да
Параметр ReFrames формата                : 5 кадров
Идентификатор кодека                     : V_MPEG4/ISO/AVC
Продолжительность                        : 1 ч. 30 м.
Битрейт                                  : 8816 Кбит/сек
Ширина                                   : 1920 пикселей
Высота                                   : 808 пикселей
Соотношение сторон                       : 2,40:1
Режим частоты кадров                     : Постоянный
Частота кадров                           : 23,976 кадра/сек
Цветовое пространство                    : YUV
Субдискретизация насыщенности            : 4:2:0
Битовая глубина                          : 8 бит
Тип развёртки                            : Прогрессивная
Бит/(Пиксели*Кадры)                      : 0.237
Размер потока                            : 5,47 Гбайт (80%)
Заголовок                                : Просто потрясающе_Absolutely Fabulous: The Movie.2016.BDRip..1080p.NNMClub
Библиотека кодирования                   : x264 core 148 r2705 3f5ed56
Настройки программы                      : cabac=1 / ref=5 / deblock=1:0:0 / analyse=0x3:0x133 / me=umh / subme=7 / psy=1 / psy_rd=1.00:0.00 / mixed_ref=1 / me_range=16 / chroma_me=1 / trellis=1 / 8x8dct=1 / cqm=0 / deadzone=21,11 / fast_pskip=0 / chroma_qp_offset=-2 / threads=25 / lookahead_threads=4 / sliced_threads=0 / nr=0 / decimate=1 / interlaced=0 / bluray_compat=0 / constrained_intra=0 / bframes=3 / b_pyramid=2 / b_adapt=1 / b_bias=0 / direct=1 / weightb=1 / open_gop=0 / weightp=2 / keyint=250 / keyint_min=23 / scenecut=40 / intra_refresh=0 / rc_lookahead=40 / rc=2pass / mbtree=1 / bitrate=8816 / ratetol=1.0 / qcomp=0.60 / qpmin=0 / qpmax=69 / qpstep=4 / cplxblur=20.0 / qblur=0.5 / ip_ratio=1.40 / aq=1:1.00
Язык                                     : English
Default                                  : Да
Forced                                   : Нет
Statistics Tags Issue                    : mkvmerge v8.3.0 ('Over the Horizon') 64bit 2016-11-23 16:38:14 / mkvmerge v7.7.0 ('Six Voices') 64bit built on Feb 28 2015 23:39:33 2016-11-23 20:54:47
FromStats_BitRate                        : 8816359
FromStats_Duration                       : 01:30:55.334000000
FromStats_FrameCount                     : 130797
FromStats_StreamSize                     : 6012023157

Аудио #1
Идентификатор                            : 2
Формат                                   : AC-3
Формат/Информация                        : Audio Coding 3
Расширение режима                        : CM (complete main)
Параметр Endianness формата              : Big
Идентификатор кодека                     : A_AC3
Продолжительность                        : 1 ч. 30 м.
Вид битрейта                             : Постоянный
Битрейт                                  : 384 Кбит/сек
Каналы                                   : 2 канала
Расположение каналов                     : Front: L R
Частота                                  : 48,0 КГц
Частота кадров                           : 31,250 кадров/сек (1536 spf)
Битовая глубина                          : 16 бит
Метод сжатия                             : С потерями
Размер потока                            : 250 Мбайт (4%)
Заголовок                                : Многоголосый закадровый, профессиональный (Чистый звук)
Язык                                     : Russian
Default                                  : Да
Forced                                   : Нет

Аудио #2
Идентификатор                            : 3
Формат                                   : DTS
Формат/Информация                        : Digital Theater Systems
Режим                                    : 16
Параметр Endianness формата              : Big
Идентификатор кодека                     : A_DTS
Продолжительность                        : 1 ч. 30 м.
Вид битрейта                             : Постоянный
Битрейт                                  : 1509 Кбит/сек
Каналы                                   : 6 каналов
Расположение каналов                     : Front: L C R, Side: L R, LFE
Частота                                  : 48,0 КГц
Частота кадров                           : 93,750 кадра/сек (512 spf)
Битовая глубина                          : 24 бит
Метод сжатия                             : С потерями
Размер потока                            : 981 Мбайт (14%)
Язык                                     : English
Default                                  : Нет
Forced                                   : Нет
Statistics Tags Issue                    : mkvmerge v8.3.0 ('Over the Horizon') 64bit 2016-11-23 16:38:14 / mkvmerge v7.7.0 ('Six Voices') 64bit built on Feb 28 2015 23:39:33 2016-11-23 20:54:47
FromStats_BitRate                        : 1509000
FromStats_Duration                       : 01:30:55.328000000
FromStats_FrameCount                     : 511437
FromStats_StreamSize                     : 1029011244

Текст
Идентификатор                            : 4
Формат                                   : UTF-8
Идентификатор кодека                     : S_TEXT/UTF8
Идентификатор кодека/Информация          : UTF-8 Plain Text
Язык                                     : English
Default                                  : Нет
Forced                                   : Нет

Меню
00:00:00.000                             : en:00:00:00.000
00:02:49.544                             : en:00:02:49.544
00:06:38.565                             : en:00:06:38.565
00:11:13.882                             : en:00:11:13.882
00:14:07.055                             : en:00:14:07.055
00:17:13.157                             : en:00:17:13.157
00:21:21.489                             : en:00:21:21.489
00:24:43.857                             : en:00:24:43.857
00:29:31.895                             : en:00:29:31.895
00:33:44.814                             : en:00:33:44.814
00:36:27.685                             : en:00:36:27.685
00:41:54.137                             : en:00:41:54.137
00:45:33.189                             : en:00:45:33.189
00:49:46.358                             : en:00:49:46.358
00:53:40.509                             : en:00:53:40.509
00:56:38.186                             : en:00:56:38.186
01:02:11.061                             : en:01:02:11.061
01:05:28.883                             : en:01:05:28.883
01:09:12.273                             : en:01:09:12.273
01:12:09.951                             : en:01:12:09.951
01:14:16.410                             : en:01:14:16.410
01:17:19.176                             : en:01:17:19.176
01:20:00.629                             : en:01:20:00.629
01:22:45.669                             : en:01:22:45.669
Скриншоты:


Все одноименные релизы в Клубе

Время раздачи: с 13:00 до 23:00
Prosto potryasayushche_Absolutely Fabulous The Movie.2016.BDRip.1080p.NNMClub.mkv.torrent
 Торрент: Платиновая раздача  Зарегистрирован
 
Примагнититься

Скачать
 Зарегистрирован:   24 Ноя 2016 00:13:27
 Размер:   6,8 GB  (
 Рейтинг:   4,2 (Голосов: 40)
 Поблагодарили:   177
 Проверка:   Оформление проверено модератором 24 Ноя 2016 00:15:01
Как cкачать  ·  Как раздать  ·  Правильно оформить  ·  Поднять ратио!  
samti​natas​hka​
Стаж: 9 лет 6 мес.
Сообщений: 113
Ratio: 7,688
3.84%
russia.gif
Афигеть! Старушки не изменились (в смысле и были страшные), а вот дочура совсем чет сдает.
Спасибо, правда, много от конкретно этой части не жду.
MARET
Стаж: 6 лет 1 мес.
Сообщений: 232
Ratio: 461,423
100%
паждите... так это ж сериал аглицкий был такой давным-давно...
Minouge
Стаж: 8 мес. 9 дней
Сообщений: 7
Ratio: 5,931
1.4%
[url=]https://www.youtube.com/watch?v=3YjDMmjgKec[/url]

Узнал их после этого клипа.
Показать сообщения:   
Начать новую тему   Ответить на тему    Торрент-трекер NNM-Club -> Горячие новинки -> Новинки (HD) Часовой пояс: GMT + 3
Страница 1 из 1