Интеллигентный торрент-трекер
canvas not supported
Нас вместе: 4 103 766

Не думай дважды / Don't Think Twice (2016) BDRip [H.264/720p] [EN / EN Sub]


 
 
RSS
Начать новую тему   Ответить на тему    Торрент-трекер NNM-Club -> Зарубежное кино -> Фильмы в оригинале (HD)
Автор Сообщение
smaster67 ®
Модератор Видео
Покровитель талантов Uploader 300+
Стаж: 7 лет 5 мес.
Сообщений: 6258
Ratio: 180,063
Поблагодарили: 173765
100%
Не думай дважды / Don't Think Twice (2016) BDRip [H.264/720p] [EN / EN Sub]

Производство: США
Жанр: драма, комедия

Режиссер: Майк Бирбиглия
Актеры: Кигэн-Майкл Ки, Гиллиан Джейкобс, Майк Бирбиглия, Крис Гезерд, Кейт Микуччи, Тами Сэгер, Сет Барриш, Эрин Майя Дарк, Лина Данэм, Брайан Эдвардс, Элиз Эдвардс

Описание:
Душевная комедия о маленькой и сплоченной труппе актеров-импровизаторов, десять лет выступавших на подмостках Нью-Йорка. Любимое дело талантливых друзей оказывается под угрозой, когда продается и закрывается их театр. А когда один из героев получает заманчивое предложение от телевидения, опасность нависает и над их теплыми взаимоотношениями.



Продолжительность: 01:32:05
Качество видео: BDRip 720p
Перевод: Отсутствует
Язык озвучки: Английский
Язык субтитров: английский
Вид субтитров: Вшитые

Видео: AVC, 1280x536 (2.40:1), 5287 kbps, 23,976 fps, 0,321 bpp
Аудио: английский / DTS / 5.1 / 48 kHz / 1509 kbps / 24 bit
Код: выделить все
General
Unique ID                             Don't Think Twice.720p.mkv
Format                                   : Matroska
Format version                           : Version 4 / Version 2
File size                                : 4.37 GiB
Duration                                 : 1 h 32 min
Overall bit rate                         : 6 798 kb/s
Encoded date                             : UTC 2016-11-23 23:24:01
Writing application                      : mkvmerge v8.5.2 ('DiAMOND') 64bit
Writing library                          : libebml v1.3.3 + libmatroska v1.4.4

Video
ID                                       : 1
Format                                   : AVC
Format/Info                              : Advanced Video Codec
Format profile                           : High@L4.1
Format settings, CABAC                   : Yes
Format settings, ReFrames                : 5 frames
Codec ID                                 : V_MPEG4/ISO/AVC
Duration                                 : 1 h 32 min
Bit rate                                 : 5 287 kb/s
Width                                    : 1 280 pixels
Height                                   : 536 pixels
Display aspect ratio                     : 2.40:1
Frame rate mode                          : Constant
Frame rate                               : 23.976 (24000/1001) FPS
Color space                              : YUV
Chroma subsampling                       : 4:2:0
Bit depth                                : 8 bits
Scan type                                : Progressive
Bits/(Pixel*Frame)                       : 0.321
Stream size                              : 3.32 GiB (76%)
Writing library                          : x264 core 148 r2721 72d53ab
Encoding settings                        : cabac=1 / ref=5 / deblock=1:0:0 / analyse=0x3:0x113 / me=umh / subme=8 / psy=1 / psy_rd=1.00:0.00 / mixed_ref=1 / me_range=16 / chroma_me=1 / trellis=1 / 8x8dct=1 / cqm=0 / deadzone=21,11 / fast_pskip=1 / chroma_qp_offset=-2 / threads=24 / lookahead_threads=4 / sliced_threads=0 / nr=0 / decimate=1 / interlaced=0 / bluray_compat=0 / constrained_intra=0 / bframes=3 / b_pyramid=2 / b_adapt=1 / b_bias=0 / direct=3 / weightb=1 / open_gop=0 / weightp=2 / keyint=240 / keyint_min=24 / scenecut=40 / intra_refresh=0 / rc_lookahead=50 / rc=2pass / mbtree=1 / bitrate=5287 / ratetol=1.0 / qcomp=0.60 / qpmin=0 / qpmax=69 / qpstep=4 / cplxblur=20.0 / qblur=0.5 / ip_ratio=1.40 / aq=1:1.00
Language                                 : English
Default                                  : Yes
Forced                                   : No

Audio
ID                                       : 2
Format                                   : DTS
Format/Info                              : Digital Theater Systems
Mode                                     : 16
Format settings, Endianness              : Big
Codec ID                                 : A_DTS
Duration                                 : 1 h 32 min
Bit rate mode                            : Constant
Bit rate                                 : 1 509 kb/s
Channel(s)                               : 6 channels
Channel positions                        : Front: L C R, Side: L R, LFE
Sampling rate                            : 48.0 kHz
Frame rate                               : 93.750 FPS (512 spf)
Bit depth                                : 24 bits
Compression mode                         : Lossy
Stream size                              : 994 MiB (22%)
Language                                 : English
Default                                  : Yes
Forced                                   : No

Text #1
ID                                       : 3
Format                                   : UTF-8
Codec ID                                 : S_TEXT/UTF8
Codec ID/Info                            : UTF-8 Plain Text
Title                                    : English regular
Language                                 : English
Default                                  : No
Forced                                   : No

Text #2
ID                                       : 4
Format                                   : UTF-8
Codec ID                                 : S_TEXT/UTF8
Codec ID/Info                            : UTF-8 Plain Text
Title                                    : English SDH
Language                                 : English
Default                                  : No
Forced                                   : No

Menu
00:00:00.000                             : en:00:00:00.000
00:04:06.955                             : en:00:04:06.955
00:09:58.723                             : en:00:09:58.723
00:15:34.851                             : en:00:15:34.851
00:20:48.747                             : en:00:20:48.747
00:24:22.086                             : en:00:24:22.086
00:28:00.304                             : en:00:28:00.304
00:32:38.832                             : en:00:32:38.832
00:36:03.036                             : en:00:36:03.036
00:39:41.921                             : en:00:39:41.921
00:44:56.694                             : en:00:44:56.694
00:49:35.973                             : en:00:49:35.973
00:54:45.449                             : en:00:54:45.449
00:58:03.980                             : en:00:58:03.980
01:01:57.339                             : en:01:01:57.339
01:07:11.486                             : en:01:07:11.486
01:11:54.727                             : en:01:11:54.727
01:17:09.708                             : en:01:17:09.708
01:21:26.882                             : en:01:21:26.882
01:26:18.382                             : en:01:26:18.382

Скриншоты:



Все одноименные релизы в Клубе

Время раздачи: с 13:00 до 23:00
[NNMClub.to]_Don't Think Twice.720p.mkv.torrent
 Торрент: Серебряная раздча  Зарегистрирован
 
Примагнититься
Free Leech
Зарегистрируйтесь и скачайте торрент!
22 KB
 Зарегистрирован:   24 Ноя 2016 18:51:38
 Размер:   4,37 GB  (
 Рейтинг:    (Голосов: 4)
 Поблагодарили:   23
 Проверка:   Оформление проверено модератором 24 Ноя 2016 18:52:33
Как cкачать  ·  Как раздать  ·  Правильно оформить  ·  Поднять ратио!  
VAshdd
Стаж: 3 года 10 мес.
Сообщений: 476
Ratio: 10,988
23.41%
Ниочем.
Показать сообщения:   
Начать новую тему   Ответить на тему    Торрент-трекер NNM-Club -> Зарубежное кино -> Фильмы в оригинале (HD) Часовой пояс: GMT + 3
Страница 1 из 1