Интеллигентный торрент-трекер
canvas not supported
Нас вместе: 4 111 925

Дэвид Вебер | Космическая станция "Василиск" (2016) [m4b|AAC]


 
 
RSS
Начать новую тему   Ответить на тему    Торрент-трекер NNM-Club -> Аудио и Видео -> Аудиокниги (AAC)
Автор Сообщение
trybag ®
Стаж: 3 года 8 мес.
Сообщений: 26
Ratio: 13,743
Раздал: 347 GB
Поблагодарили: 590
55.35%
Дэвид Вебер | Космическая станция "Василиск"
Автор: Дэвид Вебер
Год: 2016
Жанр: Фантастика
Продолжительность: 15:11:50
Читает: Владимир Князев
Издательство: Аудиокниги Владимира Князева

Описание: «Василиск» — далекий перекрёсток гиперпространственных туннелей, одинокая база у захолустной планеты, принадлежащей полудиким аборигенам, заповедник контрабандистов, брошенный на произвол судьбы аванпост звездного королевства Мантикора… А ещё это арена первой битвы в грядущей войне. И если бы защиту «Василиска» не возглавила коммандер Хонор Харрингтон, у Мантикоры не было бы шансов на победу.

Формат: M4B
Аудиокодек: AAC
Битрейт: 192 kbps
Частота: 44,1 KHz
Разбивка на главы: есть
Вшитые обложки: есть
Музыкальное сопровождение: есть

Код: выделить все
Общее
Формат                                   : MPEG-4
Профиль формата                          : Apple audio with iTunes position
Идентификатор кодека                     : M4B  (M4B /mp42/isom)
Размер файла                             : 609 Мбайт
Продолжительность                        : 7 ч. 12 м.
Режим общего битрейта                    : Переменный
Общий поток                              : 196 Кбит/сек
Альбом                                   : Хонор Харрингтон
Альбом/Исполнитель                       : Дэвид Вебер
Часть/Положение                          : 1
Часть/Всего                              : 12
Трек                                     : Космическая станция Василиск 1
Трек/Положение                           : 1
Трек/Всего                               : 2
Исполнитель                              : Дэвид Вебер
Композитор                               : Владимир Князев
Издатель                                 : Аудиокниги Владимира Князева
Жанр                                     : Фантастика
Дата записи                              : 2016
Дата кодирования                         : UTC 2016-12-07 06:42:28
Дата пометки                             : UTC 2016-12-07 07:15:56
Обложка                                  : Yes
©art                                     : Владимир Князев

Аудио
Идентификатор                            : 1
Формат                                   : AAC
Формат/Информация                        : Advanced Audio Codec
Профиль формата                          : LC
Идентификатор кодека                     : 40
Продолжительность                        : 7 ч. 12 м.
Вид битрейта                             : Переменный
Битрейт                                  : 192 Кбит/сек
Максимальный битрейт                     : 241 Кбит/сек
Каналы                                   : 2 канала
Расположение каналов                     : Front: L R
Частота                                  : 44,1 КГц
Частота кадров                           : 43,066 кадра/сек (1024 spf)
Метод сжатия                             : С потерями
Размер потока                            : 604 Мбайт (99%)
Дата кодирования                         : UTC 2016-12-07 06:42:28
Дата пометки                             : UTC 2016-12-07 07:15:56
Menus                                    : 2

Меню
Идентификатор                            : 2
Идентификатор кодека                     : text
Продолжительность                        : 7 ч. 12 м.
Язык                                     : English
Дата кодирования                         : UTC 2016-12-07 07:11:02
Дата пометки                             : UTC 2016-12-07 07:11:02
Menu For                                 : 1
00:00:00.000                             : Пролог
00:14:05.415                             : Глава 1
00:52:30.994                             : Глава 2
01:11:59.097                             : Глава 3
01:34:27.944                             : Глава 4
02:02:58.999                             : Глава 5
02:28:51.578                             : Глава 6
02:51:58.552                             : Глава 7
03:11:43.838                             : Глава 8
03:44:03.146                             : Глава 9
04:10:14.812                             : Глава 10
04:39:26.850                             : Глава 11
05:02:01.154                             : Глава 12
05:29:12.634                             : Глава 13
05:53:20.189                             : Глава 14
06:07:55.953                             : Глава 15
06:29:32.253                             : Глава 16
06:46:42.128                             : Глава 17
Вид битрейта                             : VBR

Формат                                   : MPEG-4
Профиль формата                          : Apple audio with iTunes position
Идентификатор кодека                     : M4B  (M4B /mp42/isom)
Размер файла                             : 670 Мбайт
Продолжительность                        : 7 ч. 58 м.
Режим общего битрейта                    : Переменный
Общий поток                              : 196 Кбит/сек
Альбом                                   : Хонор Харрингтон
Альбом/Исполнитель                       : Дэвид Вебер
Часть/Положение                          : 1
Часть/Всего                              : 12
Трек                                     : Космическая станция Василиск 2
Трек/Положение                           : 2
Трек/Всего                               : 2
Исполнитель                              : Дэвид Вебер
Композитор                               : Владимир Князев
Издатель                                 : Аудиокниги Владимира Князева
Жанр                                     : Фантастика
Дата записи                              : 2016
Дата кодирования                         : UTC 2016-12-07 06:54:18
Дата пометки                             : UTC 2016-12-07 07:16:08
Обложка                                  : Yes
©art                                     : Владимир Князев

Аудио
Идентификатор                            : 1
Формат                                   : AAC
Формат/Информация                        : Advanced Audio Codec
Профиль формата                          : LC
Идентификатор кодека                     : 40
Продолжительность                        : 7 ч. 58 м.
Вид битрейта                             : Переменный
Битрейт                                  : 192 Кбит/сек
Максимальный битрейт                     : 305 Кбит/сек
Каналы                                   : 2 канала
Расположение каналов                     : Front: L R
Частота                                  : 44,1 КГц
Частота кадров                           : 43,066 кадра/сек (1024 spf)
Метод сжатия                             : С потерями
Размер потока                            : 665 Мбайт (99%)
Дата кодирования                         : UTC 2016-12-07 06:54:18
Дата пометки                             : UTC 2016-12-07 07:16:08
Menus                                    : 2

Меню
Идентификатор                            : 2
Идентификатор кодека                     : text
Продолжительность                        : 7 ч. 58 м.
Язык                                     : English
Дата кодирования                         : UTC 2016-12-07 07:12:49
Дата пометки                             : UTC 2016-12-07 07:12:49
Menu For                                 : 1
00:00:00.000                             : Глава 18
00:36:05.214                             : Глава 19
00:55:23.866                             : Глава 20
01:31:50.722                             : Глава 21
01:48:24.443                             : Глава 22
02:18:47.117                             : Глава 23
02:55:00.830                             : Глава 24
03:25:23.155                             : Глава 25
03:46:38.232                             : Глава 26
04:12:51.872                             : Глава 27
04:54:04.217                             : Глава 28
05:34:57.358                             : Глава 29
06:09:11.210                             : Глава 30
06:39:53.852                             : Глава 31
07:29:53.940                             : Глава 32
Вид битрейта                             : CBR
1. Космическая станция «Василиск» / On Basilisk Station (1993) - данный релиз
2. Честь королевы / The Honor of the Queen (1994)
3. Маленькая победоносная война / The Short Victorious War (1994)
4. Поле бесчестья / Field of Dishonor (1994)
5. Флагман в изгнании / Flag in Exile (1995)
6. Меж двух огней / Honor Among Enemies (1996)
7. В руках врага / In Enemy Hands (1997)
8. Испытание Адом / Echoes of Honor (1998)
9. Пепел победы / Ashes of Victory (2001)
10. Война и честь / War of Honor (2002)
11. Любой ценой / At All Costs (2005)
12. Mission of Honor / Дело чести (2010)
[NNMClub.to]_Kosmicheskaya stantsiya Vasilisk.torrent
 Торрент:   Зарегистрирован
 
Примагнититься
Free Leech
Зарегистрируйтесь и скачайте торрент!
13 KB
 Зарегистрирован:   07 Дек 2016 22:45:15
 Размер:   1,25 GB  (
 Рейтинг:   4,8 (Голосов: 13)
 Поблагодарили:   54
 Проверка:   Внимание! Оформление не проверено модератором!
Как cкачать  ·  Как раздать  ·  Правильно оформить  ·  Поднять ратио!  


Последний раз редактировалось: trybag (07 Дек 2016 22:45:05), всего редактировалось 1 раз
Shtil list
Стаж: 6 лет 5 мес.
Сообщений: 45
Ratio: 58,496
100%
russia.gif
продолжение сюда выкладывать будете?
trybag ®
Стаж: 3 года 8 мес.
Сообщений: 26
Ratio: 13,743
Раздал: 347 GB
Поблагодарили: 590
55.35%
Shtil list писал(а): Перейти к сообщению
продолжение сюда выкладывать будете?

Будет продолжение буду выкладывать. Если появится продолжение, а я не заметил не стесняйтесь пишите в личку. :D
trybag ®
Стаж: 3 года 8 мес.
Сообщений: 26
Ratio: 13,743
Раздал: 347 GB
Поблагодарили: 590
55.35%
Уважаемые дамы и господа, сегодня начал слушать книгу, и не понял как могла пройти конвертация с обрезанием в конце глав звуковой дорожки. И самое удивительное столько людей скачало но никто не пожаловался, может это только у меня так?
Книгу переделал полностью и как только модератор разрешит выложу заново.
Приношу свои извинения за неудобства.
trybag ®
Стаж: 3 года 8 мес.
Сообщений: 26
Ratio: 13,743
Раздал: 347 GB
Поблагодарили: 590
55.35%
Все кто скачали просьба перекачать. Исправлены ошибки концовок глав.
Приношу свои извинения за неудобства.
Продолжайте слушать с тех глав где остановились, пропуск 2-3 сек. большой роли не сыграет.
Ждём продолжения.
Показать сообщения:   
Начать новую тему   Ответить на тему    Торрент-трекер NNM-Club -> Аудио и Видео -> Аудиокниги (AAC) Часовой пояс: GMT + 3
Страница 1 из 1