Интеллигентный торрент-трекер
canvas not supported
Нас вместе: 4 100 727

Не думай дважды / Don't Think Twice (2016) BDRemux [H.264/1080p] [EN / EN, Fr, Sp Sub]


 
 
RSS
Начать новую тему   Ответить на тему    Торрент-трекер NNM-Club -> Зарубежное кино -> Фильмы в оригинале (HD)
Автор Сообщение
smaster67 ®
Модератор Видео
Покровитель талантов Uploader 300+
Стаж: 7 лет 5 мес.
Сообщений: 6250
Ratio: 179,944
Поблагодарили: 173515
100%
Не думай дважды / Don't Think Twice (2016) BDRemux [H.264/1080p] [EN / EN, Fr, Sp Sub]

Производство: США
Жанр: драма, комедия

Режиссер: Майк Бирбиглия
Актеры: Кигэн-Майкл Ки, Гиллиан Джейкобс, Майк Бирбиглия, Крис Гезерд, Кейт Микуччи, Тами Сэгер, Сет Барриш, Эрин Майя Дарк, Лина Данэм, Брайан Эдвардс, Элиз Эдвардс

Описание:
Душевная комедия о маленькой и сплоченной труппе актеров-импровизаторов, десять лет выступавших на подмостках Нью-Йорка. Любимое дело талантливых друзей оказывается под угрозой, когда продается и закрывается их театр. А когда один из героев получает заманчивое предложение от телевидения, опасность нависает и над их теплыми взаимоотношениями.



Продолжительность: 01:32:05
Качество видео: BDRemux
Перевод: Отсутствует
Язык озвучки: Английский
Язык субтитров: английский, испанский, французский
Вид субтитров: Вшитые

Видео: AVC, 1920x1080 (16:9), 30884 kbps, 23,976 fps, 0,621 bpp
Аудио: английский / DTS-HD / 5.1 / 48 kHz / 3538 kbps / 24 bit (Core: 5.1 / 48 kHz / 1509 kbps / 24 bit)
Код: выделить все
General
Unique ID                    Dont.Think.Twice.2016.REMUX.1080p.BluRay.AVC.DTS-HD.MA5.1-iFT\Dont.Think.Twice.2016.REMUX.1080p.BluRay.AVC.DTS-HD.MA5.1-iFT.mkv
Format                                   : Matroska
Format version                           : Version 4 / Version 2
File size                                : 22.2 GiB
Duration                                 : 1 h 32 min
Overall bit rate mode                    : Variable
Overall bit rate                         : 34.5 Mb/s
Encoded date                             : UTC 2016-11-24 18:52:42
Writing application                      : mkvmerge v8.9.0 ('Father Daughter') 64bit
Writing library                          : libebml v1.3.3 + libmatroska v1.4.4

Video
ID                                       : 1
Format                                   : AVC
Format/Info                              : Advanced Video Codec
Format profile                           : High@L4.1
Format settings, CABAC                   : Yes
Format settings, ReFrames                : 4 frames
Codec ID                                 : V_MPEG4/ISO/AVC
Duration                                 : 1 h 32 min
Bit rate mode                            : Variable
Bit rate                                 : 30.9 Mb/s
Maximum bit rate                         : 35.0 Mb/s
Width                                    : 1 920 pixels
Height                                   : 1 080 pixels
Display aspect ratio                     : 16:9
Frame rate mode                          : Constant
Frame rate                               : 23.976 (24000/1001) FPS
Color space                              : YUV
Chroma subsampling                       : 4:2:0
Bit depth                                : 8 bits
Scan type                                : Progressive
Bits/(Pixel*Frame)                       : 0.621
Stream size                              : 19.9 GiB (90%)
Title                                    : English
Language                                 : English
Default                                  : Yes
Forced                                   : No

Audio
ID                                       : 2
Format                                   : DTS
Format/Info                              : Digital Theater Systems
Format profile                           : MA / Core
Mode                                     : 16
Format settings, Endianness              : Big
Codec ID                                 : A_DTS
Duration                                 : 1 h 32 min
Bit rate mode                            : Variable / Constant
Bit rate                                 : 3 538 kb/s / 1 509 kb/s
Channel(s)                               : 6 channels
Channel positions                        : Front: L C R, Side: L R, LFE
Sampling rate                            : 48.0 kHz
Frame rate                               : 93.750 FPS (512 spf)
Bit depth                                : 24 bits
Compression mode                         : Lossless / Lossy
Stream size                              : 2.28 GiB (10%)
Title                                    : English
Language                                 : English
Default                                  : Yes
Forced                                   : No

Text #1
ID                                       : 3
Format                                   : PGS
Muxing mode                              : zlib
Codec ID                                 : S_HDMV/PGS
Codec ID/Info                            : Picture based subtitle format used on BDs/HD-DVDs
Duration                                 : 1 h 24 min
Bit rate                                 : 19.3 kb/s
Count of elements                        : 3472
Stream size                              : 11.7 MiB (0%)
Title                                    : English-PGS
Language                                 : English
Default                                  : Yes
Forced                                   : No

Text #2
ID                                       : 4
Format                                   : PGS
Muxing mode                              : zlib
Codec ID                                 : S_HDMV/PGS
Codec ID/Info                            : Picture based subtitle format used on BDs/HD-DVDs
Duration                                 : 1 h 30 min
Bit rate                                 : 14.1 kb/s
Count of elements                        : 3057
Stream size                              : 9.15 MiB (0%)
Title                                    : Spanish-PGS
Language                                 : Spanish
Default                                  : No
Forced                                   : No

Text #3
ID                                       : 5
Format                                   : PGS
Muxing mode                              : zlib
Codec ID                                 : S_HDMV/PGS
Codec ID/Info                            : Picture based subtitle format used on BDs/HD-DVDs
Duration                                 : 1 h 30 min
Bit rate                                 : 14.6 kb/s
Count of elements                        : 3059
Stream size                              : 9.46 MiB (0%)
Title                                    : French-PGS
Language                                 : French
Default                                  : No
Forced                                   : No

Menu
00:00:00.000                             : en:Chapter 01
00:04:06.955                             : en:Chapter 02
00:09:58.723                             : en:Chapter 03
00:15:34.850                             : en:Chapter 04
00:20:48.747                             : en:Chapter 05
00:24:22.085                             : en:Chapter 06
00:28:00.303                             : en:Chapter 07
00:32:38.831                             : en:Chapter 08
00:36:03.035                             : en:Chapter 09
00:39:41.921                             : en:Chapter 10
00:44:56.694                             : en:Chapter 11
00:49:35.973                             : en:Chapter 12
00:54:45.448                             : en:Chapter 13
00:58:03.980                             : en:Chapter 14
01:01:57.338                             : en:Chapter 15
01:07:11.485                             : en:Chapter 16
01:11:54.727                             : en:Chapter 17
01:17:09.708                             : en:Chapter 18
01:21:26.882                             : en:Chapter 19
01:26:18.381                             : en:Chapter 20

Скриншоты:



Все одноименные релизы в Клубе

Время раздачи: с 13:00 до 23:00
[NNMClub.to]_Dont.Think.Twice.2016.REMUX.1080p.BluRay.AVC.DTS-HD.MA5.1-iFT.mkv.torrent
 Торрент: Золотая раздача  Зарегистрирован
 
Примагнититься
Free Leech
Зарегистрируйтесь и скачайте торрент!
111 KB
 Зарегистрирован:   24 Ноя 2016 23:38:46
 Размер:   22,2 GB  (
 Рейтинг:    (Голосов: 4)
 Поблагодарили:   32
 Проверка:   Оформление проверено модератором 24 Ноя 2016 23:39:59
Как cкачать  ·  Как раздать  ·  Правильно оформить  ·  Поднять ратио!  
Dench​ick99​9​
Стаж: 2 года 11 мес.
Сообщений: 56
Ratio: 3,277
24.53%
Хотелось бы субтитрики к этому фильму...
Показать сообщения:   
Начать новую тему   Ответить на тему    Торрент-трекер NNM-Club -> Зарубежное кино -> Фильмы в оригинале (HD) Часовой пояс: GMT + 3
Страница 1 из 1