Интеллигентный торрент-трекер
canvas not supported
Нас вместе: 4 108 128

Только правда / The Whole Truth (2016) BDRemux [H.264/1080p] [EN]


 
 
RSS
Начать новую тему   Ответить на тему    Торрент-трекер NNM-Club -> Зарубежное кино -> Фильмы в оригинале (HD)
Автор Сообщение
smaster67 ®
Модератор Видео
Покровитель талантов Uploader 300+
Стаж: 7 лет 5 мес.
Сообщений: 6265
Ratio: 180,416
Поблагодарили: 174068
100%
Только правда / The Whole Truth (2016) BDRemux [H.264/1080p] [EN]

Производство: США
Жанр: триллер, драма

Режиссер: Кортни Хант
Актеры: Киану Ривз, Рене Зеллвегер, Гугу Эмбата-Ро, Гэбриел Бассо, Джеймс Белуши, Джим Клок, Ричи Монтгомери, Кристофер Берри, Лара Грайс, Николь Барре, Лаки Джонсон, Линдсей Кимболл

Описание:
Адвокат пытается доказать невиновность клиента-подростка, которого обвиняют в убийстве богатого отца.



Продолжительность: 01:33:33
Качество видео: BDRemux
Перевод: Отсутствует
Язык озвучки: Английский

Видео: AVC, 1920x1080 (16:9), 22322 kbps, 23,976 fps, 0,449 bpp
Аудио: английский / DTS-HD / 5.1 / 48 kHz / 3379 kbps / 24 bit (Core: 5.1 / 48 kHz / 1509 kbps / 24 bit)
Код: выделить все
General
Unique ID                     The.Whole.Truth.2016.V2.REMUX.1080p.BluRay.AVC.DTS-HD.MA5.1-iFT\The.Whole.Truth.2016.V2.REMUX.1080p.BluRay.AVC.DTS-HD.MA5.1-iFT.mkv
Format                                   : Matroska
Format version                           : Version 4 / Version 2
File size                                : 16.8 GiB
Duration                                 : 1 h 33 min
Overall bit rate mode                    : Variable
Overall bit rate                         : 25.7 Mb/s
Encoded date                             : UTC 2016-11-26 13:02:21
Writing application                      : mkvmerge v8.9.0 ('Father Daughter') 64bit
Writing library                          : libebml v1.3.3 + libmatroska v1.4.4

Video
ID                                       : 1
Format                                   : AVC
Format/Info                              : Advanced Video Codec
Format profile                           : High@L4.1
Format settings, CABAC                   : Yes
Format settings, ReFrames                : 3 frames
Codec ID                                 : V_MPEG4/ISO/AVC
Duration                                 : 1 h 33 min
Bit rate mode                            : Variable
Bit rate                                 : 22.3 Mb/s
Maximum bit rate                         : 35.0 Mb/s
Width                                    : 1 920 pixels
Height                                   : 1 080 pixels
Display aspect ratio                     : 16:9
Frame rate mode                          : Constant
Frame rate                               : 23.976 (24000/1001) FPS
Standard                                 : NTSC
Color space                              : YUV
Chroma subsampling                       : 4:2:0
Bit depth                                : 8 bits
Scan type                                : Progressive
Bits/(Pixel*Frame)                       : 0.449
Stream size                              : 14.6 GiB (87%)
Language                                 : English
Default                                  : No
Forced                                   : No
Color range                              : Limited
Color primaries                          : BT.709
Transfer characteristics                 : BT.709
Matrix coefficients                      : BT.709

Audio
ID                                       : 2
Format                                   : DTS
Format/Info                              : Digital Theater Systems
Format profile                           : MA / Core
Mode                                     : 16
Format settings, Endianness              : Big
Codec ID                                 : A_DTS
Duration                                 : 1 h 33 min
Bit rate mode                            : Variable / Constant
Bit rate                                 : 3 379 kb/s / 1 509 kb/s
Channel(s)                               : 6 channels
Channel positions                        : Front: L C R, Side: L R, LFE
Sampling rate                            : 48.0 kHz
Frame rate                               : 93.750 FPS (512 spf)
Bit depth                                : 24 bits
Compression mode                         : Lossless / Lossy
Stream size                              : 2.21 GiB (13%)
Title                                    : English
Language                                 : English
Default                                  : Yes
Forced                                   : No

Menu
00:00:00.000                             : en:Chapter 01
00:11:46.038                             : en:Chapter 02
00:21:55.605                             : en:Chapter 03
00:35:39.178                             : en:Chapter 04
00:47:48.115                             : en:Chapter 05
00:58:18.661                             : en:Chapter 06
01:10:01.655                             : en:Chapter 07
01:21:45.108                             : en:Chapter 08

Скриншоты:



Все одноименные релизы в Клубе

Время раздачи: с 13:00 до 23:00
[NNMClub.to]_The.Whole.Truth.2016.V2.REMUX.1080p.BluRay.AVC.DTS-HD.MA5.1-iFT.mkv.torrent
 Торрент: Золотая раздача  Зарегистрирован
 
Примагнититься
Free Leech
Зарегистрируйтесь и скачайте торрент!
84,2 KB
 Зарегистрирован:   26 Ноя 2016 17:23:24
 Размер:   16,8 GB  (
 Рейтинг:    (Голосов: 5)
 Поблагодарили:   67
 Проверка:   Оформление проверено модератором 26 Ноя 2016 17:24:50
Как cкачать  ·  Как раздать  ·  Правильно оформить  ·  Поднять ратио!  
Angel​inaGu​bzhok​ova​
Стаж: 2 года
Сообщений: 44
Ratio: 13,354
55.07%
Великолепное кино для думающих людей.Фильм не только о том, что все лгут , но также и о причинах лжи, ложь в семье, ложь во спасение, ложь во имя правды. Очень взрослая история! Браво! рекомендую любителям задуматься над фильмом, после его завершения. Всем приятного просмотра!
Показать сообщения:   
Начать новую тему   Ответить на тему    Торрент-трекер NNM-Club -> Зарубежное кино -> Фильмы в оригинале (HD) Часовой пояс: GMT + 3
Страница 1 из 1