Интеллигентный торрент-трекер
canvas not supported
Нас вместе: 4 348 411

Последний лепесток (2016) HDTVRip [H.264/1080p-LQ]


 
 
RSS
Начать новую тему   Ответить на тему    Торрент-трекер NNM-Club -> Отечественное кино -> Отечественные Фильмы (HD*Rip/LQ, DVDRip, SATRip, VHSRip)
Автор Сообщение
Kir_Nov ®
 
Стаж: 7 лет 3 мес.
Сообщений: 221
Ratio: 61,212
Раздал: 132,5 TB
Поблагодарили: 10473
100%
Откуда: г. Иваново
russia.gif
Последний лепесток (2016) HDTVRip [H.264/1080p-LQ]
Год выпуска: 2016
Производство: Россия, кинокомпания "Русское"
Жанр: Мелодрама
Перевод: Не требуется (русский)
Субтитры: Отсутствуют

Режиссер: Валерий Девятилов
Актеры: Бибигуль Суюншалина, Артём Осипов, Наталия Житкова, Светлана Милованова, Леонид Громов, Эдуард Айткулов, Владислав Погиба, Наталья Третьякова, Юлия Соловьева, Андрей Балякин и др.

Описание:
Гуля с мужем Анзуром приезжают из Таджикистана в Москву на заработки. Умелый рабочий Анзур становится бригадиром на стройке. Гуля работает поваром. Супруги полны радужных надежд: они ожидают рождения ребенка и готовятся снять уютную квартиру. Но все планы перечеркивает трагедия. В потасовке с прорабом Анзура убивают. Несчастная Гуля оказывается на улице — без денег, документов и на сносях…



Дата российской премьеры: 25.11.2016

Продолжительность: 01:29:54
Качество видео: HDTVRip [H.264/1080p-LQ]

Видео: AVC/H.264, 1920х1080, 6362 kbps
Аудио: AC3, 2 ch, 384 kbps, CBR
Код: выделить все
Общее
Уникальный идентификатор                 : 168348648403719580577546155723716462494 (0x7EA6C532C2870C1E037BA147C20E879E)
Полное имя                               : E:\Закачки\Последний лепесток.mkv
Формат                                   : Matroska
Версия формата                           : Version 2
Размер файла                             : 4,32 Гбайт
Продолжительность                        : 1 ч. 29 м.
Общий поток                              : 6883 Кбит/сек
Программа кодирования                    : Lavf51.12.1
Библиотека кодирования                   : Lavf51.12.1

Видео
Идентификатор                            : 1
Формат                                   : AVC
Формат/Информация                        : Advanced Video Codec
Профиль формата                          : High@L4.0
Параметр CABAC формата                   : Да
Параметр ReFrames формата                : 1 кадр
Параметр GOP формата                     : M=1, N=12
Идентификатор кодека                     : V_MPEG4/ISO/AVC
Продолжительность                        : 1 ч. 29 м.
Битрейт                                  : 6362 Кбит/сек
Ширина                                   : 1920 пикселей
Высота                                   : 1080 пикселей
Соотношение сторон                       : 16:9
Режим частоты кадров                     : Постоянный
Частота кадров                           : 25,000 кадров/сек
Стандарт вещания                         : Component
Цветовое пространство                    : YUV
Субдискретизация насыщенности            : 4:2:0
Битовая глубина                          : 8 бит
Тип развёртки                            : Прогрессивная
Бит/(Пиксели*Кадры)                      : 0.123
Размер потока                            : 4,00 Гбайт (92%)
Default                                  : Да
Forced                                   : Нет
Коэффициенты матрицы                     : RGB

Аудио
Идентификатор                            : 2
Формат                                   : AC-3
Формат/Информация                        : Audio Coding 3
Расширение режима                        : CM (complete main)
Параметр Endianness формата              : Big
Идентификатор кодека                     : A_AC3
Продолжительность                        : 1 ч. 29 м.
Вид битрейта                             : Постоянный
Битрейт                                  : 384 Кбит/сек
Каналы                                   : 2 канала
Расположение каналов                     : Front: L R
Частота                                  : 48,0 КГц
Битовая глубина                          : 16 бит
Метод сжатия                             : С потерями
Размер потока                            : 247 Мбайт (6%)
Default                                  : Да
Forced                                   : Нет
Скриншоты:


Все одноименные релизы в Клубе
Время раздачи: 24/7 (круглосуточно)
[NNMClub.to]_Posledniy lepestok.torrent
 Торрент: Платиновая раздача  Зарегистрирован
 
Примагнититься

Скачать
 Зарегистрирован:   26 Ноя 2016 17:56:13
 Размер:   4,32 GB  (
 Рейтинг:   4 (Голосов: 27)
 Поблагодарили:   118
 Проверка:   Оформление проверено модератором 27 Ноя 2016 00:22:49
Как cкачать  ·  Как раздать  ·  Правильно оформить  ·  Поднять ратио!  
Загрузка...
gerlinn
Стаж: 7 лет 7 мес.
Сообщений: 1
Ratio: 2,58
22.93%
honduras.gif
Скачал только из-за описания ,улыбнуло. Спасибо раздающему. Посмотрю, может и правда фильм хороший[b]
reypo
Стаж: 1 год 1 мес.
Сообщений: 31
Ratio: 4,851
100%
Гуля! Езжай домой к папе с мамой. Не дави на жалость.
dmiserfed
Стаж: 8 лет
Сообщений: 38
Ratio: 1,9
0%
kazakhstan.gif
отличный способ отмывать бабки- снимать авно на политкорректные темы дружбы народов
baurmaley
Стаж: 3 года 9 мес.
Сообщений: 8
Ratio: 3,546
44.29%
kazakhstan.gif
Лопата у неё в руках хорошая, прям европейская такая лопата с ручкой на конце, чтоб не крутилась значит и не выскальзывала. А менты тут, прямо скажем, такие оборотни в погонах и субчик-кидала прям такой жизненный!
S.Bash
Стаж: 5 лет 11 мес.
Сообщений: 604
Ratio: 32,833
Раздал: 30,69 TB
98.17%
russia.gif
Что же это за релиз такой, в первые проблемы с просмотрам.
А если по подробней, то удалось мне запустить его только в MPC-HC плеере, попытался назад отмотать, завис даже проводник, и с того места больше так и не воспроизвёлся, пришлось ждать минут пятнадцать на ускоренной перемотки, до того момента где зависло, и после, ещё минут пять ожидания (плеер не отвечал), в оконцовке и на нервозе, всё же досмотрел.
В CyberLink PowerDVD 16 вообще не запустился, один чёрный экран, разве такое бывает...
Даже не знаю что и сказать, за релиз конечно благодарю, но нервы я потрепал от души...
Kir_Nov ®
 
Стаж: 7 лет 3 мес.
Сообщений: 221
Ratio: 61,212
Раздал: 132,5 TB
Поблагодарили: 10473
100%
Откуда: г. Иваново
russia.gif
S.Bash
Проверил ещё раз во всех плеерах, которые у меня стоят. Воспроизводят все. Но в некоторых проблемы с перемоткой действительно присутствуют. С чем это связано пока сказать не могу. Буду выяснять. Спасибо за замечание.

_________________
Топик был перенесен из форума Отечественные Новинки (HD*Rip/LQ, DVDRip) в форум Отечественные Фильмы (HD*Rip/LQ, DVDRip, SATRip, VHSRip)



Исправил релиз - напиши ЛС K.E.N, дав ссылку на релиз.
Если нет ответа 24 часа - нажми на кнопку "Обратить внимание модераторов".
Показать сообщения:   
Начать новую тему   Ответить на тему    Торрент-трекер NNM-Club -> Отечественное кино -> Отечественные Фильмы (HD*Rip/LQ, DVDRip, SATRip, VHSRip) Часовой пояс: GMT + 3
Страница 1 из 1