Интеллигентный торрент-трекер
canvas not supported
Нас вместе: 4 114 544

Бен-Гур / Ben-Hur (2016) BDRip [H.264/720p] [EN]


 
 
RSS
Начать новую тему   Ответить на тему    Торрент-трекер NNM-Club -> Зарубежное кино -> Фильмы в оригинале (HD)
Автор Сообщение
smaster67 ®
Модератор Видео
Покровитель талантов Uploader 300+
Стаж: 7 лет 5 мес.
Сообщений: 6275
Ratio: 180,968
Поблагодарили: 174682
100%
Бен-Гур / Ben-Hur (2016) BDRip [H.264/720p] [EN]

Производство: США
Жанр: боевик, драма, приключения

Режиссер: Тимур Бекмамбетов
Актеры: Джек Хьюстон, Тоби Кеббелл, Родриго Санторо, Назанин Бониади, Айелет Зурер, Йохан Филип Асбек, София Блэк-Д’Элиа, Морган Фриман, Марван Кензари, Мойзес Ариас, Джеймс Космо, Халук Бильгинер

Описание:
История Бен-Гура, потомка знатного иудейского рода, который был предан своим лучшим другом-римлянином. Проведя много лет в рабстве на римских галерах, Бен-Гур в итоге получает возможность вернуться на родину и отомстить обидчику.



Продолжительность: 02:04:43
Качество видео: BDRip 720p
Перевод: Отсутствует
Язык озвучки: Английский

Видео: AVC, 1280x536 (2.40:1), 4762 kbps, 23,976 fps, 0,289 bpp
Аудио: английский / DTS / 5.1 / 48 kHz / 1509 kbps / 24 bit
Код: выделить все
General
Unique ID                             Ben.Hur.2016.720p.mkv
Format                                   : Matroska
Format version                           : Version 4 / Version 2
File size                                : 5.46 GiB
Duration                                 : 2 h 4 min
Overall bit rate                         : 6 272 kb/s
Encoded date                             : UTC 2016-11-26 10:09:05
Writing application                      : mkvmerge v8.3.0 ('Over the Horizon') 64bit
Writing library                          : libebml v1.3.1 + libmatroska v1.4.2

Video
ID                                       : 1
Format                                   : AVC
Format/Info                              : Advanced Video Codec
Format profile                           : High@L4.1
Format settings, CABAC                   : Yes
Format settings, ReFrames                : 5 frames
Codec ID                                 : V_MPEG4/ISO/AVC
Duration                                 : 2 h 4 min
Bit rate                                 : 4 762 kb/s
Width                                    : 1 280 pixels
Height                                   : 536 pixels
Display aspect ratio                     : 2.40:1
Frame rate mode                          : Constant
Frame rate                               : 23.976 FPS
Color space                              : YUV
Chroma subsampling                       : 4:2:0
Bit depth                                : 8 bits
Scan type                                : Progressive
Bits/(Pixel*Frame)                       : 0.289
Stream size                              : 4.15 GiB (76%)
Writing library                          : x264 core 148 r2705 3f5ed56
Encoding settings                        : cabac=1 / ref=5 / deblock=1:0:0 / analyse=0x3:0x133 / me=umh / subme=7 / psy=1 / psy_rd=1.00:0.00 / mixed_ref=1 / me_range=16 / chroma_me=1 / trellis=1 / 8x8dct=1 / cqm=0 / deadzone=21,11 / fast_pskip=0 / chroma_qp_offset=-2 / threads=12 / lookahead_threads=2 / sliced_threads=0 / nr=0 / decimate=1 / interlaced=0 / bluray_compat=0 / constrained_intra=0 / bframes=3 / b_pyramid=2 / b_adapt=1 / b_bias=0 / direct=1 / weightb=1 / open_gop=0 / weightp=2 / keyint=250 / keyint_min=23 / scenecut=40 / intra_refresh=0 / rc_lookahead=40 / rc=2pass / mbtree=1 / bitrate=4762 / ratetol=1.0 / qcomp=0.60 / qpmin=0 / qpmax=69 / qpstep=4 / cplxblur=20.0 / qblur=0.5 / ip_ratio=1.40 / aq=1:1.00
Language                                 : English
Default                                  : Yes
Forced                                   : No

Audio
ID                                       : 2
Format                                   : DTS
Format/Info                              : Digital Theater Systems
Mode                                     : 16
Format settings, Endianness              : Big
Codec ID                                 : A_DTS
Duration                                 : 2 h 4 min
Bit rate mode                            : Constant
Bit rate                                 : 1 509 kb/s
Channel(s)                               : 6 channels
Channel positions                        : Front: L C R, Side: L R, LFE
Sampling rate                            : 48.0 kHz
Frame rate                               : 93.750 FPS (512 spf)
Bit depth                                : 24 bits
Compression mode                         : Lossy
Stream size                              : 1.31 GiB (24%)
Language                                 : English
Default                                  : Yes
Forced                                   : No

Menu
00:00:00.000                             : en:00:00:00.000
00:07:03.882                             : en:00:07:03.882
00:15:42.942                             : en:00:15:42.942
00:19:47.895                             : en:00:19:47.895
00:27:25.853                             : en:00:27:25.853
00:33:09.362                             : en:00:33:09.362
00:41:07.215                             : en:00:41:07.215
00:48:20.064                             : en:00:48:20.064
00:55:21.652                             : en:00:55:21.652
01:05:41.229                             : en:01:05:41.229
01:13:15.891                             : en:01:13:15.891
01:22:26.900                             : en:01:22:26.900
01:31:30.193                             : en:01:31:30.193
01:39:55.656                             : en:01:39:55.656
01:46:30.801                             : en:01:46:30.801
01:54:54.638                             : en:01:54:54.638

Скриншоты:



Все одноименные релизы в Клубе

Время раздачи: с 13:00 до 23:00
[NNMClub.to]_Ben.Hur.2016.720p.mkv.torrent
 Торрент: Серебряная раздча  Зарегистрирован
 
Примагнититься
Free Leech
Зарегистрируйтесь и скачайте торрент!
27,5 KB
 Зарегистрирован:   26 Ноя 2016 21:35:14
 Размер:   5,46 GB  (
 Рейтинг:   4,3 (Голосов: 20)
 Поблагодарили:   120
 Проверка:   Оформление проверено модератором 26 Ноя 2016 21:35:57
Как cкачать  ·  Как раздать  ·  Правильно оформить  ·  Поднять ратио!  
erkin_mm1
Стаж: 3 года 1 мес.
Сообщений: 1
Ratio: 1,947
0%
5 GB
Vasil00777
Стаж: 1 год 11 мес.
Сообщений: 4
Ratio: 1,322
1.45%
Вас не затруднит сделать 2GВ версию этого фильма, к сожалению компьютер не тянет, очень хотелось бы сравнить с фильмом 59 года, заранее благодарю.
aziat​ik131​304​
Стаж: 5 лет 7 мес.
Сообщений: 19
Ratio: 8,428
0.21%
бетмынбетов-в топку не глядя!!! раздающему респект.
Vasil00777
Стаж: 1 год 11 мес.
Сообщений: 4
Ratio: 1,322
1.45%
Извините за беспокойство, надобность отпала, нашел на другом трекере.
Показать сообщения:   
Начать новую тему   Ответить на тему    Торрент-трекер NNM-Club -> Зарубежное кино -> Фильмы в оригинале (HD) Часовой пояс: GMT + 3
Страница 1 из 1