Интеллигентный торрент-трекер
canvas not supported
Нас вместе: 4 100 727

m² (m2, Squaremeter) - Discography 12 Releases (2000-2010) Ant-Zen, Hands Productions [FLAC|Lossless|tracks + .cue] <Experimental, IDM, Glitch, Dark Ambient, Industrial>


 
 
RSS
Начать новую тему   Ответить на тему    Торрент-трекер NNM-Club -> Electronic -> IDM (Lossless)
Автор Сообщение
vilator ®
Модератор Музыки
RG Музыки
 
Стаж: 7 лет 7 мес.
Сообщений: 5412
Ratio: 117,531
Поблагодарили: 103965
100%
Откуда: Minsk
pirates.png
Discography

(Squaremeter), побочный проект немца Mathis Mootz (The Panacea), известного своими drum'n'bass club smashing хитами-убийцами европейских танцполов и замеченного в связях с Xingu Hill (диск this anxious space), лайвах с David Thrussel и сотрудничестве с Cativo (The hardest tour on earth). Однако, считать Squaremeter драм'н'басом совершенно неверно. Амбиентная тяжесть звучания, остановок и неземной кинематики ясно дают понять, что клубные заигрывания с учащимися ПТУ — не по его части.
Жанр: Experimental, IDM, Glitch, Abstract, Dark Ambient, Industrial, Ambient • Страна: Germany • Год: 2000-2010 • Тип издания: CD, Vinyl
Аудиокодек: FLAC (*.flac) • Тип рипа: tracks+.cue • Продолжительность: 11:32:53 • Источник (релизер): What
Треклист:
Год выпуска: 2000
Продолжительность: 01:00:53
Треклист:

01. one.87.00:02:43,74 (02:47)
02. two.176.00:01:58,58 (02:02)
03. three.211.00:02:50,18 (02:53)
04. four.239.00:03:05,09 (03:08)
05. five.133.00:04:38,63 (04:42)
06. six.102.00:04:07,04 (04:10)
07. seven.39.00:06:49,22 (06:52)
08. eight.25.00:07:16,46 (07:20)
09. nine.398.00:02:36,43 (02:40)
10. ten.76.00:03:46,16 (03:49)
11. eleven.14.00:04:32,17 (04:35)
12. twelve.80.00:03:32,51 (03:36)
13. thirteen.90.00:03:40,21 (03:43)
14-98. (silent tracks) (00:05:40)
99. ninetynine.40.00:02:56,31 (02:56)

Exact Audio Copy V0.99 prebeta 4 from 23. January 2008

EAC extraction logfile from 6. October 2008, 12:44

m2 / 14id1610s

Used drive : _NEC DVD_RW ND-3550A Adapter: 0 ID: 0

Read mode : Secure
Utilize accurate stream : Yes
Defeat audio cache : Yes
Make use of C2 pointers : No

Read offset correction : 48
Overread into Lead-In and Lead-Out : No
Fill up missing offset samples with silence : Yes
Delete leading and trailing silent blocks : No
Null samples used in CRC calculations : Yes
Used interface : Installed external ASPI interface
Gap handling : Appended to previous track

Used output format : User Defined Encoder
Selected bitrate : 1024 kBit/s
Quality : High
Add ID3 tag : No
Command line compressor : D:\Programs\Tools\_Exact Audio Copy\FLAC\FLAC.EXE
Additional command line options : -8 -V -T "ARTIST=%a" -T "TITLE=%t" -T "ALBUM=%g" -T "DATE=%y" -T "TRACKNUMBER=%n" -T "GENRE=%m" -T "COMMENT=%e" %s -o %d

TOC of the extracted CD

Track | Start | Length | Start sector | End sector
---------------------------------------------------------
1 | 0:00.00 | 2:46.74 | 0 | 12523
2 | 2:46.74 | 2:01.58 | 12524 | 21656
3 | 4:48.57 | 2:53.18 | 21657 | 34649
4 | 7:42.00 | 3:08.09 | 34650 | 48758
5 | 10:50.09 | 4:41.63 | 48759 | 69896
6 | 15:31.72 | 4:10.04 | 69897 | 88650
7 | 19:42.01 | 6:52.22 | 88651 | 119572
8 | 26:34.23 | 7:19.46 | 119573 | 152543
9 | 33:53.69 | 2:39.43 | 152544 | 164511
10 | 36:33.37 | 3:49.16 | 164512 | 181702
11 | 40:22.53 | 4:35.17 | 181703 | 202344
12 | 44:57.70 | 3:35.51 | 202345 | 218520
13 | 48:33.46 | 3:43.21 | 218521 | 235266
14 | 52:16.67 | 0:04.00 | 235267 | 235566
15 | 52:20.67 | 0:04.00 | 235567 | 235866
16 | 52:24.67 | 0:04.00 | 235867 | 236166
17 | 52:28.67 | 0:04.00 | 236167 | 236466
18 | 52:32.67 | 0:04.00 | 236467 | 236766
19 | 52:36.67 | 0:04.00 | 236767 | 237066
20 | 52:40.67 | 0:04.00 | 237067 | 237366
21 | 52:44.67 | 0:04.00 | 237367 | 237666
22 | 52:48.67 | 0:04.00 | 237667 | 237966
23 | 52:52.67 | 0:04.00 | 237967 | 238266
24 | 52:56.67 | 0:04.00 | 238267 | 238566
25 | 53:00.67 | 0:04.00 | 238567 | 238866
26 | 53:04.67 | 0:04.00 | 238867 | 239166
27 | 53:08.67 | 0:04.00 | 239167 | 239466
28 | 53:12.67 | 0:04.00 | 239467 | 239766
29 | 53:16.67 | 0:04.00 | 239767 | 240066
30 | 53:20.67 | 0:04.00 | 240067 | 240366
31 | 53:24.67 | 0:04.00 | 240367 | 240666
32 | 53:28.67 | 0:04.00 | 240667 | 240966
33 | 53:32.67 | 0:04.00 | 240967 | 241266
34 | 53:36.67 | 0:04.00 | 241267 | 241566
35 | 53:40.67 | 0:04.00 | 241567 | 241866
36 | 53:44.67 | 0:04.00 | 241867 | 242166
37 | 53:48.67 | 0:04.00 | 242167 | 242466
38 | 53:52.67 | 0:04.00 | 242467 | 242766
39 | 53:56.67 | 0:04.00 | 242767 | 243066
40 | 54:00.67 | 0:04.00 | 243067 | 243366
41 | 54:04.67 | 0:04.00 | 243367 | 243666
42 | 54:08.67 | 0:04.00 | 243667 | 243966
43 | 54:12.67 | 0:04.00 | 243967 | 244266
44 | 54:16.67 | 0:04.00 | 244267 | 244566
45 | 54:20.67 | 0:04.00 | 244567 | 244866
46 | 54:24.67 | 0:04.00 | 244867 | 245166
47 | 54:28.67 | 0:04.00 | 245167 | 245466
48 | 54:32.67 | 0:04.00 | 245467 | 245766
49 | 54:36.67 | 0:04.00 | 245767 | 246066
50 | 54:40.67 | 0:04.00 | 246067 | 246366
51 | 54:44.67 | 0:04.00 | 246367 | 246666
52 | 54:48.67 | 0:04.00 | 246667 | 246966
53 | 54:52.67 | 0:04.00 | 246967 | 247266
54 | 54:56.67 | 0:04.00 | 247267 | 247566
55 | 55:00.67 | 0:04.00 | 247567 | 247866
56 | 55:04.67 | 0:04.00 | 247867 | 248166
57 | 55:08.67 | 0:04.00 | 248167 | 248466
58 | 55:12.67 | 0:04.00 | 248467 | 248766
59 | 55:16.67 | 0:04.00 | 248767 | 249066
60 | 55:20.67 | 0:04.00 | 249067 | 249366
61 | 55:24.67 | 0:04.00 | 249367 | 249666
62 | 55:28.67 | 0:04.00 | 249667 | 249966
63 | 55:32.67 | 0:04.00 | 249967 | 250266
64 | 55:36.67 | 0:04.00 | 250267 | 250566
65 | 55:40.67 | 0:04.00 | 250567 | 250866
66 | 55:44.67 | 0:04.00 | 250867 | 251166
67 | 55:48.67 | 0:04.00 | 251167 | 251466
68 | 55:52.67 | 0:04.00 | 251467 | 251766
69 | 55:56.67 | 0:04.00 | 251767 | 252066
70 | 56:00.67 | 0:04.00 | 252067 | 252366
71 | 56:04.67 | 0:04.00 | 252367 | 252666
72 | 56:08.67 | 0:04.00 | 252667 | 252966
73 | 56:12.67 | 0:04.00 | 252967 | 253266
74 | 56:16.67 | 0:04.00 | 253267 | 253566
75 | 56:20.67 | 0:04.00 | 253567 | 253866
76 | 56:24.67 | 0:04.00 | 253867 | 254166
77 | 56:28.67 | 0:04.00 | 254167 | 254466
78 | 56:32.67 | 0:04.00 | 254467 | 254766
79 | 56:36.67 | 0:04.00 | 254767 | 255066
80 | 56:40.67 | 0:04.00 | 255067 | 255366
81 | 56:44.67 | 0:04.00 | 255367 | 255666
82 | 56:48.67 | 0:04.00 | 255667 | 255966
83 | 56:52.67 | 0:04.00 | 255967 | 256266
84 | 56:56.67 | 0:04.00 | 256267 | 256566
85 | 57:00.67 | 0:04.00 | 256567 | 256866
86 | 57:04.67 | 0:04.00 | 256867 | 257166
87 | 57:08.67 | 0:04.00 | 257167 | 257466
88 | 57:12.67 | 0:04.00 | 257467 | 257766
89 | 57:16.67 | 0:04.00 | 257767 | 258066
90 | 57:20.67 | 0:04.00 | 258067 | 258366
91 | 57:24.67 | 0:04.00 | 258367 | 258666
92 | 57:28.67 | 0:04.00 | 258667 | 258966
93 | 57:32.67 | 0:04.00 | 258967 | 259266
94 | 57:36.67 | 0:04.00 | 259267 | 259566
95 | 57:40.67 | 0:04.00 | 259567 | 259866
96 | 57:44.67 | 0:04.00 | 259867 | 260166
97 | 57:48.67 | 0:04.00 | 260167 | 260466
98 | 57:52.67 | 0:04.00 | 260467 | 260766
99 | 57:56.67 | 2:56.31 | 260767 | 273997

Track 1

Filename G:\EAC Temporare\001 87.00-02-43,74.wav

Pre-gap length 0:00:02.00

Peak level 96.5 %
Track quality 100.0 %
Test CRC F464C1CD
Copy CRC F464C1CD
Track not present in AccurateRip database
Copy OK

Track 2

Filename G:\EAC Temporare\002 176.00-01-58,58.wav

Pre-gap length 0:00:03.00

Peak level 90.1 %
Track quality 100.0 %
Test CRC 33445E21
Copy CRC 33445E21
Track not present in AccurateRip database
Copy OK

Track 3

Filename G:\EAC Temporare\003 211.00-02-50,18.wav

Pre-gap length 0:00:03.00

Peak level 96.5 %
Track quality 100.0 %
Test CRC 56D0E15B
Copy CRC 56D0E15B
Track not present in AccurateRip database
Copy OK

Track 4

Filename G:\EAC Temporare\004 239.00-03-05,09.wav

Pre-gap length 0:00:03.00

Peak level 96.5 %
Track quality 100.0 %
Test CRC 0B0960CC
Copy CRC 0B0960CC
Track not present in AccurateRip database
Copy OK

Track 5

Filename G:\EAC Temporare\005 133.00-04-38,63.wav

Pre-gap length 0:00:03.00

Peak level 96.5 %
Track quality 100.0 %
Test CRC 296E37DE
Copy CRC 296E37DE
Track not present in AccurateRip database
Copy OK

Track 6

Filename G:\EAC Temporare\006 102.00-04-07,04.wav

Pre-gap length 0:00:03.00

Peak level 76.2 %
Track quality 99.9 %
Test CRC 413FA176
Copy CRC 413FA176
Track not present in AccurateRip database
Copy OK

Track 7

Filename G:\EAC Temporare\007 39.00-06-49,22.wav

Pre-gap length 0:00:03.00

Peak level 91.1 %
Track quality 100.0 %
Test CRC D95963DA
Copy CRC D95963DA
Track not present in AccurateRip database
Copy OK

Track 8

Filename G:\EAC Temporare\008 25.00-07-16,46.wav

Pre-gap length 0:00:03.00

Peak level 96.5 %
Track quality 100.0 %
Test CRC 8262A7C3
Copy CRC 8262A7C3
Track not present in AccurateRip database
Copy OK

Track 9

Filename G:\EAC Temporare\009 398.00-02-36,43.wav

Pre-gap length 0:00:03.00

Peak level 90.3 %
Track quality 100.0 %
Test CRC 1D915E6D
Copy CRC 1D915E6D
Track not present in AccurateRip database
Copy OK

Track 10

Filename G:\EAC Temporare\010 76.00-03-46,16.wav

Pre-gap length 0:00:03.00

Peak level 96.5 %
Track quality 100.0 %
Test CRC 9E0CB909
Copy CRC 9E0CB909
Track not present in AccurateRip database
Copy OK

Track 11

Filename G:\EAC Temporare\011 14.00-04-32,17.wav

Pre-gap length 0:00:03.00

Peak level 77.9 %
Track quality 100.0 %
Test CRC 0358C7B4
Copy CRC 0358C7B4
Track not present in AccurateRip database
Copy OK

Track 12

Filename G:\EAC Temporare\012 80.00-03-32,51.wav

Pre-gap length 0:00:03.00

Peak level 96.5 %
Track quality 100.0 %
Test CRC B2782C48
Copy CRC B2782C48
Track not present in AccurateRip database
Copy OK

Track 13

Filename G:\EAC Temporare\013 90.00-03-40,21.wav

Pre-gap length 0:00:03.00

Peak level 96.5 %
Track quality 100.0 %
Test CRC 0630511E
Copy CRC 0630511E
Track not present in AccurateRip database
Copy OK

Track 14

Filename G:\EAC Temporare\014 blank.wav

Pre-gap length 0:00:03.00

Peak level 0.0 %
Track quality 97.2 %
Test CRC 02864C0E
Copy CRC 02864C0E
Track not present in AccurateRip database
Copy OK

Track 15

Filename G:\EAC Temporare\015 blank.wav

Peak level 0.0 %
Track quality 97.2 %
Test CRC 02864C0E
Copy CRC 02864C0E
Track not present in AccurateRip database
Copy OK

Track 16

Filename G:\EAC Temporare\016 blank.wav

Peak level 0.0 %
Track quality 97.2 %
Test CRC 02864C0E
Copy CRC 02864C0E
Track not present in AccurateRip database
Copy OK

Track 17

Filename G:\EAC Temporare\017 blank.wav

Peak level 0.0 %
Track quality 97.2 %
Test CRC 02864C0E
Copy CRC 02864C0E
Track not present in AccurateRip database
Copy OK

Track 18

Filename G:\EAC Temporare\018 blank.wav

Peak level 0.0 %
Track quality 97.2 %
Test CRC 02864C0E
Copy CRC 02864C0E
Track not present in AccurateRip database
Copy OK

Track 19

Filename G:\EAC Temporare\019 blank.wav

Peak level 0.0 %
Track quality 97.2 %
Test CRC 02864C0E
Copy CRC 02864C0E
Track not present in AccurateRip database
Copy OK

Track 20

Filename G:\EAC Temporare\020 blank.wav

Peak level 0.0 %
Track quality 97.2 %
Test CRC 02864C0E
Copy CRC 02864C0E
Track not present in AccurateRip database
Copy OK

Track 21

Filename G:\EAC Temporare\021 blank.wav

Peak level 0.0 %
Track quality 97.2 %
Test CRC 02864C0E
Copy CRC 02864C0E
Track not present in AccurateRip database
Copy OK

Track 22

Filename G:\EAC Temporare\022 blank.wav

Peak level 0.0 %
Track quality 97.2 %
Test CRC 02864C0E
Copy CRC 02864C0E
Track not present in AccurateRip database
Copy OK

Track 23

Filename G:\EAC Temporare\023 blank.wav

Peak level 0.0 %
Track quality 97.2 %
Test CRC 02864C0E
Copy CRC 02864C0E
Track not present in AccurateRip database
Copy OK

Track 24

Filename G:\EAC Temporare\024 blank.wav

Peak level 0.0 %
Track quality 97.2 %
Test CRC 02864C0E
Copy CRC 02864C0E
Track not present in AccurateRip database
Copy OK

Track 25

Filename G:\EAC Temporare\025 blank.wav

Peak level 0.0 %
Track quality 97.2 %
Test CRC 02864C0E
Copy CRC 02864C0E
Track not present in AccurateRip database
Copy OK

Track 26

Filename G:\EAC Temporare\026 blank.wav

Peak level 0.0 %
Track quality 97.2 %
Test CRC 02864C0E
Copy CRC 02864C0E
Track not present in AccurateRip database
Copy OK

Track 27

Filename G:\EAC Temporare\027 blank.wav

Peak level 0.0 %
Track quality 97.2 %
Test CRC 02864C0E
Copy CRC 02864C0E
Track not present in AccurateRip database
Copy OK

Track 28

Filename G:\EAC Temporare\028 blank.wav

Peak level 0.0 %
Track quality 97.2 %
Test CRC 02864C0E
Copy CRC 02864C0E
Track not present in AccurateRip database
Copy OK

Track 29

Filename G:\EAC Temporare\029 blank.wav

Peak level 0.0 %
Track quality 97.2 %
Test CRC 02864C0E
Copy CRC 02864C0E
Track not present in AccurateRip database
Copy OK

Track 30

Filename G:\EAC Temporare\030 blank.wav

Peak level 0.0 %
Track quality 97.2 %
Test CRC 02864C0E
Copy CRC 02864C0E
Track not present in AccurateRip database
Copy OK

Track 31

Filename G:\EAC Temporare\031 blank.wav

Peak level 0.0 %
Track quality 97.2 %
Test CRC 02864C0E
Copy CRC 02864C0E
Track not present in AccurateRip database
Copy OK

Track 32

Filename G:\EAC Temporare\032 blank.wav

Peak level 0.0 %
Track quality 97.2 %
Test CRC 02864C0E
Copy CRC 02864C0E
Track not present in AccurateRip database
Copy OK

Track 33

Filename G:\EAC Temporare\033 blank.wav

Peak level 0.0 %
Track quality 97.2 %
Test CRC 02864C0E
Copy CRC 02864C0E
Track not present in AccurateRip database
Copy OK

Track 34

Filename G:\EAC Temporare\034 blank.wav

Peak level 0.0 %
Track quality 97.2 %
Test CRC 02864C0E
Copy CRC 02864C0E
Track not present in AccurateRip database
Copy OK

Track 35

Filename G:\EAC Temporare\035 blank.wav

Peak level 0.0 %
Track quality 97.2 %
Test CRC 02864C0E
Copy CRC 02864C0E
Track not present in AccurateRip database
Copy OK

Track 36

Filename G:\EAC Temporare\036 blank.wav

Peak level 0.0 %
Track quality 97.2 %
Test CRC 02864C0E
Copy CRC 02864C0E
Track not present in AccurateRip database
Copy OK

Track 37

Filename G:\EAC Temporare\037 blank.wav

Peak level 0.0 %
Track quality 97.2 %
Test CRC 02864C0E
Copy CRC 02864C0E
Track not present in AccurateRip database
Copy OK

Track 38

Filename G:\EAC Temporare\038 blank.wav

Peak level 0.0 %
Track quality 97.2 %
Test CRC 02864C0E
Copy CRC 02864C0E
Track not present in AccurateRip database
Copy OK

Track 39

Filename G:\EAC Temporare\039 blank.wav

Peak level 0.0 %
Track quality 97.2 %
Test CRC 02864C0E
Copy CRC 02864C0E
Track not present in AccurateRip database
Copy OK

Track 40

Filename G:\EAC Temporare\040 blank.wav

Peak level 0.0 %
Track quality 97.2 %
Test CRC 02864C0E
Copy CRC 02864C0E
Track not present in AccurateRip database
Copy OK

Track 41

Filename G:\EAC Temporare\041 blank.wav

Peak level 0.0 %
Track quality 97.2 %
Test CRC 02864C0E
Copy CRC 02864C0E
Track not present in AccurateRip database
Copy OK

Track 42

Filename G:\EAC Temporare\042 blank.wav

Peak level 0.0 %
Track quality 97.2 %
Test CRC 02864C0E
Copy CRC 02864C0E
Track not present in AccurateRip database
Copy OK

Track 43

Filename G:\EAC Temporare\043 blank.wav

Peak level 0.0 %
Track quality 97.2 %
Test CRC 02864C0E
Copy CRC 02864C0E
Track not present in AccurateRip database
Copy OK

Track 44

Filename G:\EAC Temporare\044 blank.wav

Peak level 0.0 %
Track quality 97.2 %
Test CRC 02864C0E
Copy CRC 02864C0E
Track not present in AccurateRip database
Copy OK

Track 45

Filename G:\EAC Temporare\045 blank.wav

Peak level 0.0 %
Track quality 97.2 %
Test CRC 02864C0E
Copy CRC 02864C0E
Track not present in AccurateRip database
Copy OK

Track 46

Filename G:\EAC Temporare\046 blank.wav

Peak level 0.0 %
Track quality 97.2 %
Test CRC 02864C0E
Copy CRC 02864C0E
Track not present in AccurateRip database
Copy OK

Track 47

Filename G:\EAC Temporare\047 blank.wav

Peak level 0.0 %
Track quality 97.2 %
Test CRC 02864C0E
Copy CRC 02864C0E
Track not present in AccurateRip database
Copy OK

Track 48

Filename G:\EAC Temporare\048 blank.wav

Peak level 0.0 %
Track quality 97.2 %
Test CRC 02864C0E
Copy CRC 02864C0E
Track not present in AccurateRip database
Copy OK

Track 49

Filename G:\EAC Temporare\049 blank.wav

Peak level 0.0 %
Track quality 97.2 %
Test CRC 02864C0E
Copy CRC 02864C0E
Track not present in AccurateRip database
Copy OK

Track 50

Filename G:\EAC Temporare\050 blank.wav

Peak level 0.0 %
Track quality 97.2 %
Test CRC 02864C0E
Copy CRC 02864C0E
Track not present in AccurateRip database
Copy OK

Track 51

Filename G:\EAC Temporare\051 blank.wav

Peak level 0.0 %
Track quality 97.2 %
Test CRC 02864C0E
Copy CRC 02864C0E
Track not present in AccurateRip database
Copy OK

Track 52

Filename G:\EAC Temporare\052 blank.wav

Peak level 0.0 %
Track quality 97.2 %
Test CRC 02864C0E
Copy CRC 02864C0E
Track not present in AccurateRip database
Copy OK

Track 53

Filename G:\EAC Temporare\053 blank.wav

Peak level 0.0 %
Track quality 97.2 %
Test CRC 02864C0E
Copy CRC 02864C0E
Track not present in AccurateRip database
Copy OK

Track 54

Filename G:\EAC Temporare\054 blank.wav

Peak level 0.0 %
Track quality 97.2 %
Test CRC 02864C0E
Copy CRC 02864C0E
Track not present in AccurateRip database
Copy OK

Track 55

Filename G:\EAC Temporare\055 blank.wav

Peak level 0.0 %
Track quality 97.2 %
Test CRC 02864C0E
Copy CRC 02864C0E
Track not present in AccurateRip database
Copy OK

Track 56

Filename G:\EAC Temporare\056 blank.wav

Peak level 0.0 %
Track quality 97.2 %
Test CRC 02864C0E
Copy CRC 02864C0E
Track not present in AccurateRip database
Copy OK

Track 57

Filename G:\EAC Temporare\057 blank.wav

Peak level 0.0 %
Track quality 97.2 %
Test CRC 02864C0E
Copy CRC 02864C0E
Track not present in AccurateRip database
Copy OK

Track 58

Filename G:\EAC Temporare\058 blank.wav

Peak level 0.0 %
Track quality 97.2 %
Test CRC 02864C0E
Copy CRC 02864C0E
Track not present in AccurateRip database
Copy OK

Track 59

Filename G:\EAC Temporare\059 blank.wav

Peak level 0.0 %
Track quality 97.2 %
Test CRC 02864C0E
Copy CRC 02864C0E
Track not present in AccurateRip database
Copy OK

Track 60

Filename G:\EAC Temporare\060 blank.wav

Peak level 0.0 %
Track quality 97.2 %
Test CRC 02864C0E
Copy CRC 02864C0E
Track not present in AccurateRip database
Copy OK

Track 61

Filename G:\EAC Temporare\061 blank.wav

Peak level 0.0 %
Track quality 97.2 %
Test CRC 02864C0E
Copy CRC 02864C0E
Track not present in AccurateRip database
Copy OK

Track 62

Filename G:\EAC Temporare\062 blank.wav

Peak level 0.0 %
Track quality 97.2 %
Test CRC 02864C0E
Copy CRC 02864C0E
Track not present in AccurateRip database
Copy OK

Track 63

Filename G:\EAC Temporare\063 blank.wav

Peak level 0.0 %
Track quality 97.2 %
Test CRC 02864C0E
Copy CRC 02864C0E
Track not present in AccurateRip database
Copy OK

Track 64

Filename G:\EAC Temporare\064 blank.wav

Peak level 0.0 %
Track quality 97.2 %
Test CRC 02864C0E
Copy CRC 02864C0E
Track not present in AccurateRip database
Copy OK

Track 65

Filename G:\EAC Temporare\065 blank.wav

Peak level 0.0 %
Track quality 97.2 %
Test CRC 02864C0E
Copy CRC 02864C0E
Track not present in AccurateRip database
Copy OK

Track 66

Filename G:\EAC Temporare\066 blank.wav

Peak level 0.0 %
Track quality 97.2 %
Test CRC 02864C0E
Copy CRC 02864C0E
Track not present in AccurateRip database
Copy OK

Track 67

Filename G:\EAC Temporare\067 blank.wav

Peak level 0.0 %
Track quality 97.2 %
Test CRC 02864C0E
Copy CRC 02864C0E
Track not present in AccurateRip database
Copy OK

Track 68

Filename G:\EAC Temporare\068 blank.wav

Peak level 0.0 %
Track quality 97.2 %
Test CRC 02864C0E
Copy CRC 02864C0E
Track not present in AccurateRip database
Copy OK

Track 69

Filename G:\EAC Temporare\069 blank.wav

Peak level 0.0 %
Track quality 97.2 %
Test CRC 02864C0E
Copy CRC 02864C0E
Track not present in AccurateRip database
Copy OK

Track 70

Filename G:\EAC Temporare\070 blank.wav

Peak level 0.0 %
Track quality 97.2 %
Test CRC 02864C0E
Copy CRC 02864C0E
Track not present in AccurateRip database
Copy OK

Track 71

Filename G:\EAC Temporare\071 blank.wav

Peak level 0.0 %
Track quality 97.2 %
Test CRC 02864C0E
Copy CRC 02864C0E
Track not present in AccurateRip database
Copy OK

Track 72

Filename G:\EAC Temporare\072 blank.wav

Peak level 0.0 %
Track quality 97.2 %
Test CRC 02864C0E
Copy CRC 02864C0E
Track not present in AccurateRip database
Copy OK

Track 73

Filename G:\EAC Temporare\073 blank.wav

Peak level 0.0 %
Track quality 97.2 %
Test CRC 02864C0E
Copy CRC 02864C0E
Track not present in AccurateRip database
Copy OK

Track 74

Filename G:\EAC Temporare\074 blank.wav

Peak level 0.0 %
Track quality 97.2 %
Test CRC 02864C0E
Copy CRC 02864C0E
Track not present in AccurateRip database
Copy OK

Track 75

Filename G:\EAC Temporare\075 blank.wav

Peak level 0.0 %
Track quality 97.2 %
Test CRC 02864C0E
Copy CRC 02864C0E
Track not present in AccurateRip database
Copy OK

Track 76

Filename G:\EAC Temporare\076 blank.wav

Peak level 0.0 %
Track quality 97.2 %
Test CRC 02864C0E
Copy CRC 02864C0E
Track not present in AccurateRip database
Copy OK

Track 77

Filename G:\EAC Temporare\077 blank.wav

Peak level 0.0 %
Track quality 97.2 %
Test CRC 02864C0E
Copy CRC 02864C0E
Track not present in AccurateRip database
Copy OK

Track 78

Filename G:\EAC Temporare\078 blank.wav

Peak level 0.0 %
Track quality 97.2 %
Test CRC 02864C0E
Copy CRC 02864C0E
Track not present in AccurateRip database
Copy OK

Track 79

Filename G:\EAC Temporare\079 blank.wav

Peak level 0.0 %
Track quality 97.2 %
Test CRC 02864C0E
Copy CRC 02864C0E
Track not present in AccurateRip database
Copy OK

Track 80

Filename G:\EAC Temporare\080 blank.wav

Peak level 0.0 %
Track quality 97.2 %
Test CRC 02864C0E
Copy CRC 02864C0E
Track not present in AccurateRip database
Copy OK

Track 81

Filename G:\EAC Temporare\081 blank.wav

Peak level 0.0 %
Track quality 97.2 %
Test CRC 02864C0E
Copy CRC 02864C0E
Track not present in AccurateRip database
Copy OK

Track 82

Filename G:\EAC Temporare\082 blank.wav

Peak level 0.0 %
Track quality 97.2 %
Test CRC 02864C0E
Copy CRC 02864C0E
Track not present in AccurateRip database
Copy OK

Track 83

Filename G:\EAC Temporare\083 blank.wav

Peak level 0.0 %
Track quality 97.2 %
Test CRC 02864C0E
Copy CRC 02864C0E
Track not present in AccurateRip database
Copy OK

Track 84

Filename G:\EAC Temporare\084 blank.wav

Peak level 0.0 %
Track quality 97.2 %
Test CRC 02864C0E
Copy CRC 02864C0E
Track not present in AccurateRip database
Copy OK

Track 85

Filename G:\EAC Temporare\085 blank.wav

Peak level 0.0 %
Track quality 97.2 %
Test CRC 02864C0E
Copy CRC 02864C0E
Track not present in AccurateRip database
Copy OK

Track 86

Filename G:\EAC Temporare\086 blank.wav

Peak level 0.0 %
Track quality 97.2 %
Test CRC 02864C0E
Copy CRC 02864C0E
Track not present in AccurateRip database
Copy OK

Track 87

Filename G:\EAC Temporare\087 blank.wav

Peak level 0.0 %
Track quality 97.2 %
Test CRC 02864C0E
Copy CRC 02864C0E
Track not present in AccurateRip database
Copy OK

Track 88

Filename G:\EAC Temporare\088 blank.wav

Peak level 0.0 %
Track quality 97.2 %
Test CRC 02864C0E
Copy CRC 02864C0E
Track not present in AccurateRip database
Copy OK

Track 89

Filename G:\EAC Temporare\089 blank.wav

Peak level 0.0 %
Track quality 97.2 %
Test CRC 02864C0E
Copy CRC 02864C0E
Track not present in AccurateRip database
Copy OK

Track 90

Filename G:\EAC Temporare\090 blank.wav

Peak level 0.0 %
Track quality 97.2 %
Test CRC 02864C0E
Copy CRC 02864C0E
Track not present in AccurateRip database
Copy OK

Track 91

Filename G:\EAC Temporare\091 blank.wav

Peak level 0.0 %
Track quality 97.2 %
Test CRC 02864C0E
Copy CRC 02864C0E
Track not present in AccurateRip database
Copy OK

Track 92

Filename G:\EAC Temporare\092 blank.wav

Peak level 0.0 %
Track quality 97.2 %
Test CRC 02864C0E
Copy CRC 02864C0E
Track not present in AccurateRip database
Copy OK

Track 93

Filename G:\EAC Temporare\093 blank.wav

Peak level 0.0 %
Track quality 97.2 %
Test CRC 02864C0E
Copy CRC 02864C0E
Track not present in AccurateRip database
Copy OK

Track 94

Filename G:\EAC Temporare\094 blank.wav

Peak level 0.0 %
Track quality 97.2 %
Test CRC 02864C0E
Copy CRC 02864C0E
Track not present in AccurateRip database
Copy OK

Track 95

Filename G:\EAC Temporare\095 blank.wav

Peak level 0.0 %
Track quality 97.2 %
Test CRC 02864C0E
Copy CRC 02864C0E
Track not present in AccurateRip database
Copy OK

Track 96

Filename G:\EAC Temporare\096 blank.wav

Peak level 0.0 %
Track quality 97.2 %
Test CRC 02864C0E
Copy CRC 02864C0E
Track not present in AccurateRip database
Copy OK

Track 97

Filename G:\EAC Temporare\097 blank.wav

Peak level 0.0 %
Track quality 97.2 %
Test CRC 02864C0E
Copy CRC 02864C0E
Track not present in AccurateRip database
Copy OK

Track 98

Filename G:\EAC Temporare\098 blank.wav

Peak level 0.0 %
Track quality 97.2 %
Test CRC 02864C0E
Copy CRC 02864C0E
Track not present in AccurateRip database
Copy OK

Track 99

Filename G:\EAC Temporare\099 40.00-02-56,31.wav

Peak level 96.5 %
Track quality 100.0 %
Test CRC 1D42868A
Copy CRC 1D42868A
Track not present in AccurateRip database
Copy OK

None of the tracks are present in the AccurateRip database

No errors occurred

End of status report


REM GENRE Experimental, Ambient
REM DATE 2000
REM DISCID 8F0E4563
REM COMMENT ExactAudioCopy v0.99pb4
PERFORMER "m2"
TITLE "14id1610s"
FILE "001 87.00-02-43,74.flac" WAVE
TRACK 01 AUDIO
TITLE "87.00:02:43,74"
INDEX 01 00:00:00
FILE "002 176.00-01-58,58.flac" WAVE
TRACK 02 AUDIO
TITLE "176.00:01:58,58"
INDEX 00 00:00:00
INDEX 01 00:03:00
FILE "003 211.00-02-50,18.flac" WAVE
TRACK 03 AUDIO
TITLE "211.00:02:50,18"
INDEX 00 00:00:00
INDEX 01 00:03:00
FILE "004 239.00-03-05,09.flac" WAVE
TRACK 04 AUDIO
TITLE "239.00:03:05,09"
INDEX 00 00:00:00
INDEX 01 00:03:00
FILE "005 133.00-04-38,63.flac" WAVE
TRACK 05 AUDIO
TITLE "133.00:04:38,63"
INDEX 00 00:00:00
INDEX 01 00:03:00
FILE "006 102.00-04-07,04.flac" WAVE
TRACK 06 AUDIO
TITLE "102.00:04:07,04"
INDEX 00 00:00:00
INDEX 01 00:03:00
FILE "007 39.00-06-49,22.flac" WAVE
TRACK 07 AUDIO
TITLE "39.00:06:49,22"
INDEX 00 00:00:00
INDEX 01 00:03:00
FILE "008 25.00-07-16,46.flac" WAVE
TRACK 08 AUDIO
TITLE "25.00:07:16,46"
INDEX 00 00:00:00
INDEX 01 00:03:00
FILE "009 398.00-02-36,43.flac" WAVE
TRACK 09 AUDIO
TITLE "398.00:02:36,43"
INDEX 00 00:00:00
INDEX 01 00:03:00
FILE "010 76.00-03-46,16.flac" WAVE
TRACK 10 AUDIO
TITLE "76.00:03:46,16"
INDEX 00 00:00:00
INDEX 01 00:03:00
FILE "011 14.00-04-32,17.flac" WAVE
TRACK 11 AUDIO
TITLE "14.00:04:32,17"
INDEX 00 00:00:00
INDEX 01 00:03:00
FILE "012 80.00-03-32,51.flac" WAVE
TRACK 12 AUDIO
TITLE "80.00:03:32,51"
INDEX 00 00:00:00
INDEX 01 00:03:00
FILE "013 90.00-03-40,21.flac" WAVE
TRACK 13 AUDIO
TITLE "90.00:03:40,21"
INDEX 00 00:00:00
INDEX 01 00:03:00
FILE "014 blank.flac" WAVE
TRACK 14 AUDIO
TITLE "blank"
INDEX 00 00:00:00
INDEX 01 00:03:00
FILE "015 blank.flac" WAVE
TRACK 15 AUDIO
TITLE "blank"
INDEX 01 00:00:00
FILE "016 blank.flac" WAVE
TRACK 16 AUDIO
TITLE "blank"
INDEX 01 00:00:00
FILE "017 blank.flac" WAVE
TRACK 17 AUDIO
TITLE "blank"
INDEX 01 00:00:00
FILE "018 blank.flac" WAVE
TRACK 18 AUDIO
TITLE "blank"
INDEX 01 00:00:00
FILE "019 blank.flac" WAVE
TRACK 19 AUDIO
TITLE "blank"
INDEX 01 00:00:00
FILE "020 blank.flac" WAVE
TRACK 20 AUDIO
TITLE "blank"
INDEX 01 00:00:00
FILE "021 blank.flac" WAVE
TRACK 21 AUDIO
TITLE "blank"
INDEX 01 00:00:00
FILE "022 blank.flac" WAVE
TRACK 22 AUDIO
TITLE "blank"
INDEX 01 00:00:00
FILE "023 blank.flac" WAVE
TRACK 23 AUDIO
TITLE "blank"
INDEX 01 00:00:00
FILE "024 blank.flac" WAVE
TRACK 24 AUDIO
TITLE "blank"
INDEX 01 00:00:00
FILE "025 blank.flac" WAVE
TRACK 25 AUDIO
TITLE "blank"
INDEX 01 00:00:00
FILE "026 blank.flac" WAVE
TRACK 26 AUDIO
TITLE "blank"
INDEX 01 00:00:00
FILE "027 blank.flac" WAVE
TRACK 27 AUDIO
TITLE "blank"
INDEX 01 00:00:00
FILE "028 blank.flac" WAVE
TRACK 28 AUDIO
TITLE "blank"
INDEX 01 00:00:00
FILE "029 blank.flac" WAVE
TRACK 29 AUDIO
TITLE "blank"
INDEX 01 00:00:00
FILE "030 blank.flac" WAVE
TRACK 30 AUDIO
TITLE "blank"
INDEX 01 00:00:00
FILE "031 blank.flac" WAVE
TRACK 31 AUDIO
TITLE "blank"
INDEX 01 00:00:00
FILE "032 blank.flac" WAVE
TRACK 32 AUDIO
TITLE "blank"
INDEX 01 00:00:00
FILE "033 blank.flac" WAVE
TRACK 33 AUDIO
TITLE "blank"
INDEX 01 00:00:00
FILE "034 blank.flac" WAVE
TRACK 34 AUDIO
TITLE "blank"
INDEX 01 00:00:00
FILE "035 blank.flac" WAVE
TRACK 35 AUDIO
TITLE "blank"
INDEX 01 00:00:00
FILE "036 blank.flac" WAVE
TRACK 36 AUDIO
TITLE "blank"
INDEX 01 00:00:00
FILE "037 blank.flac" WAVE
TRACK 37 AUDIO
TITLE "blank"
INDEX 01 00:00:00
FILE "038 blank.flac" WAVE
TRACK 38 AUDIO
TITLE "blank"
INDEX 01 00:00:00
FILE "039 blank.flac" WAVE
TRACK 39 AUDIO
TITLE "blank"
INDEX 01 00:00:00
FILE "040 blank.flac" WAVE
TRACK 40 AUDIO
TITLE "blank"
INDEX 01 00:00:00
FILE "041 blank.flac" WAVE
TRACK 41 AUDIO
TITLE "blank"
INDEX 01 00:00:00
FILE "042 blank.flac" WAVE
TRACK 42 AUDIO
TITLE "blank"
INDEX 01 00:00:00
FILE "043 blank.flac" WAVE
TRACK 43 AUDIO
TITLE "blank"
INDEX 01 00:00:00
FILE "044 blank.flac" WAVE
TRACK 44 AUDIO
TITLE "blank"
INDEX 01 00:00:00
FILE "045 blank.flac" WAVE
TRACK 45 AUDIO
TITLE "blank"
INDEX 01 00:00:00
FILE "046 blank.flac" WAVE
TRACK 46 AUDIO
TITLE "blank"
INDEX 01 00:00:00
FILE "047 blank.flac" WAVE
TRACK 47 AUDIO
TITLE "blank"
INDEX 01 00:00:00
FILE "048 blank.flac" WAVE
TRACK 48 AUDIO
TITLE "blank"
INDEX 01 00:00:00
FILE "049 blank.flac" WAVE
TRACK 49 AUDIO
TITLE "blank"
INDEX 01 00:00:00
FILE "050 blank.flac" WAVE
TRACK 50 AUDIO
TITLE "blank"
INDEX 01 00:00:00
FILE "051 blank.flac" WAVE
TRACK 51 AUDIO
TITLE "blank"
INDEX 01 00:00:00
FILE "052 blank.flac" WAVE
TRACK 52 AUDIO
TITLE "blank"
INDEX 01 00:00:00
FILE "053 blank.flac" WAVE
TRACK 53 AUDIO
TITLE "blank"
INDEX 01 00:00:00
FILE "054 blank.flac" WAVE
TRACK 54 AUDIO
TITLE "blank"
INDEX 01 00:00:00
FILE "055 blank.flac" WAVE
TRACK 55 AUDIO
TITLE "blank"
INDEX 01 00:00:00
FILE "056 blank.flac" WAVE
TRACK 56 AUDIO
TITLE "blank"
INDEX 01 00:00:00
FILE "057 blank.flac" WAVE
TRACK 57 AUDIO
TITLE "blank"
INDEX 01 00:00:00
FILE "058 blank.flac" WAVE
TRACK 58 AUDIO
TITLE "blank"
INDEX 01 00:00:00
FILE "059 blank.flac" WAVE
TRACK 59 AUDIO
TITLE "blank"
INDEX 01 00:00:00
FILE "060 blank.flac" WAVE
TRACK 60 AUDIO
TITLE "blank"
INDEX 01 00:00:00
FILE "061 blank.flac" WAVE
TRACK 61 AUDIO
TITLE "blank"
INDEX 01 00:00:00
FILE "062 blank.flac" WAVE
TRACK 62 AUDIO
TITLE "blank"
INDEX 01 00:00:00
FILE "063 blank.flac" WAVE
TRACK 63 AUDIO
TITLE "blank"
INDEX 01 00:00:00
FILE "064 blank.flac" WAVE
TRACK 64 AUDIO
TITLE "blank"
INDEX 01 00:00:00
FILE "065 blank.flac" WAVE
TRACK 65 AUDIO
TITLE "blank"
INDEX 01 00:00:00
FILE "066 blank.flac" WAVE
TRACK 66 AUDIO
TITLE "blank"
INDEX 01 00:00:00
FILE "067 blank.flac" WAVE
TRACK 67 AUDIO
TITLE "blank"
INDEX 01 00:00:00
FILE "068 blank.flac" WAVE
TRACK 68 AUDIO
TITLE "blank"
INDEX 01 00:00:00
FILE "069 blank.flac" WAVE
TRACK 69 AUDIO
TITLE "blank"
INDEX 01 00:00:00
FILE "070 blank.flac" WAVE
TRACK 70 AUDIO
TITLE "blank"
INDEX 01 00:00:00
FILE "071 blank.flac" WAVE
TRACK 71 AUDIO
TITLE "blank"
INDEX 01 00:00:00
FILE "072 blank.flac" WAVE
TRACK 72 AUDIO
TITLE "blank"
INDEX 01 00:00:00
FILE "073 blank.flac" WAVE
TRACK 73 AUDIO
TITLE "blank"
INDEX 01 00:00:00
FILE "074 blank.flac" WAVE
TRACK 74 AUDIO
TITLE "blank"
INDEX 01 00:00:00
FILE "075 blank.flac" WAVE
TRACK 75 AUDIO
TITLE "blank"
INDEX 01 00:00:00
FILE "076 blank.flac" WAVE
TRACK 76 AUDIO
TITLE "blank"
INDEX 01 00:00:00
FILE "077 blank.flac" WAVE
TRACK 77 AUDIO
TITLE "blank"
INDEX 01 00:00:00
FILE "078 blank.flac" WAVE
TRACK 78 AUDIO
TITLE "blank"
INDEX 01 00:00:00
FILE "079 blank.flac" WAVE
TRACK 79 AUDIO
TITLE "blank"
INDEX 01 00:00:00
FILE "080 blank.flac" WAVE
TRACK 80 AUDIO
TITLE "blank"
INDEX 01 00:00:00
FILE "081 blank.flac" WAVE
TRACK 81 AUDIO
TITLE "blank"
INDEX 01 00:00:00
FILE "082 blank.flac" WAVE
TRACK 82 AUDIO
TITLE "blank"
INDEX 01 00:00:00
FILE "083 blank.flac" WAVE
TRACK 83 AUDIO
TITLE "blank"
INDEX 01 00:00:00
FILE "084 blank.flac" WAVE
TRACK 84 AUDIO
TITLE "blank"
INDEX 01 00:00:00
FILE "085 blank.flac" WAVE
TRACK 85 AUDIO
TITLE "blank"
INDEX 01 00:00:00
FILE "086 blank.flac" WAVE
TRACK 86 AUDIO
TITLE "blank"
INDEX 01 00:00:00
FILE "087 blank.flac" WAVE
TRACK 87 AUDIO
TITLE "blank"
INDEX 01 00:00:00
FILE "088 blank.flac" WAVE
TRACK 88 AUDIO
TITLE "blank"
INDEX 01 00:00:00
FILE "089 blank.flac" WAVE
TRACK 89 AUDIO
TITLE "blank"
INDEX 01 00:00:00
FILE "090 blank.flac" WAVE
TRACK 90 AUDIO
TITLE "blank"
INDEX 01 00:00:00
FILE "091 blank.flac" WAVE
TRACK 91 AUDIO
TITLE "blank"
INDEX 01 00:00:00
FILE "092 blank.flac" WAVE
TRACK 92 AUDIO
TITLE "blank"
INDEX 01 00:00:00
FILE "093 blank.flac" WAVE
TRACK 93 AUDIO
TITLE "blank"
INDEX 01 00:00:00
FILE "094 blank.flac" WAVE
TRACK 94 AUDIO
TITLE "blank"
INDEX 01 00:00:00
FILE "095 blank.flac" WAVE
TRACK 95 AUDIO
TITLE "blank"
INDEX 01 00:00:00
FILE "096 blank.flac" WAVE
TRACK 96 AUDIO
TITLE "blank"
INDEX 01 00:00:00
FILE "097 blank.flac" WAVE
TRACK 97 AUDIO
TITLE "blank"
INDEX 01 00:00:00
FILE "098 blank.flac" WAVE
TRACK 98 AUDIO
TITLE "blank"
INDEX 01 00:00:00
FILE "099 40.00-02-56,31.flac" WAVE
TRACK 99 AUDIO
TITLE "40.00:02:56,31"
INDEX 01 00:00:00

Год выпуска: 2000
Продолжительность: 00:24:10
Треклист:

01. Gay Basher (06:51)
02. Fascho Fag (Needle Sharing Remix) (06:11)
03. Fascho Fag m? (04:07)
04. Fascho Fag m? (04:06)
05. Gay Basher (m? Remix Featuring Problem) (02:55)

-----------------------

DON'T MODIFY THIS FILE

-----------------------

PERFORMER: auCDtect Task Manager, ver. 1.5.1RC6 build 1.5.1.7
Copyright (c) 2008-2010 y-soft. All rights reserved
http://y-soft.org

ANALYZER: auCDtect: CD records authenticity detector, version 0.8.2
Copyright (c) 2004 Oleg Berngardt. All rights reserved.
Copyright (c) 2004 Alexander Djourik. All rights reserved.

FILE: B3 - Needle Sharing - Gay Basher (m² Remix Featuring Problem).flac
Size: 15540815 Hash: 7CC9FAE9E208AE83BB3509F4FF211749 Accuracy: -m0
Conclusion: CDDA 100%
Signature: 3CC735BBBA2BBED80A851B42BFC53C10A44B5F07
FILE: B2 - m² - Fascho Fag m².flac
Size: 19578997 Hash: 677366CDD84AA7D4B8DE8C4E9A44F80B Accuracy: -m0
Conclusion: CDDA 100%
Signature: 8FFEB55DBD3D2814CD9F2E4DCD8B34A5A35E5A1B
FILE: B1 - m² - Fascho Fag m¹.flac
Size: 17628742 Hash: 085A96A7A7BE72C06F96A807C5EF3FF6 Accuracy: -m0
Conclusion: CDDA 100%
Signature: 64B582442C6C313DAA0271AEB5453BA664158E2D
FILE: A2 - m² - Fascho Fag (Needle Sharing Remix).flac
Size: 39130799 Hash: FB7BE59F445035405650592DC23E14D9 Accuracy: -m0
Conclusion: CDDA 100%
Signature: D5EEB3B063C9270D2CB1C710CE0834BDF2C06292
FILE: A1 - Needle Sharing - Gay Basher.flac
Size: 44315923 Hash: 57032118407E77D159FEED0C3D4D469C Accuracy: -m0
Conclusion: MPEG 85%
Signature: ACE66675E96F3B109F95D160586A44D03551DFAF

Post-processing: None, this is a raw rip. No click removal and no
normalization, completely unprocesssed.
TT: VPI Traveler
Cartridge: Dynavector DV10X5
Preamp: Bugle2
Device: Roland UA-55 Quad Capture
Format: 24/96 transcoded to 16-bit flac
Год выпуска: 2000
Продолжительность: 01:04:53
Треклист:

01. 0.2.20 (03:03)
02. 0.6.05 (06:05)
03. 0.6.20 (06:20)
04. 0.3.05 (03:06)
05. 0.2.25 (02:26)
06. 0.4.45 (04:46)
07. 0.2.08 (02:09)
08. 0.2.50 (02:50)
09. 0.3.02 (03:03)
10. 0.4.41 (04:41)
11. 0.8.01 (08:01)
12. 0.4.42 (04:43)
13. 0.8.01 (08:48)
14. Sinecore (04:52)

Exact Audio Copy V0.99 prebeta 4 from 23. January 2008

EAC extraction logfile from 5. August 2008, 12:10

M2 / Sinecore

Used drive : HL-DT-STDVDRAM GH20NS10 Adapter: 3 ID: 0

Read mode : Secure
Utilize accurate stream : Yes
Defeat audio cache : Yes
Make use of C2 pointers : No

Read offset correction : 667
Overread into Lead-In and Lead-Out : No
Fill up missing offset samples with silence : Yes
Delete leading and trailing silent blocks : No
Null samples used in CRC calculations : Yes
Used interface : Native Win32 interface for Win NT & 2000
Gap handling : Appended to previous track

Used output format : User Defined Encoder
Selected bitrate : 768 kBit/s
Quality : High
Add ID3 tag : No
Command line compressor : C:\Program Files\FLAC\flac.exe
Additional command line options : -V -8 -T "artist=%a" -T "title=%t" -T "album=%g" -T "date=%y" -T "tracknumber=%n" %s

TOC of the extracted CD

Track | Start | Length | Start sector | End sector
---------------------------------------------------------
1 | 0:00.00 | 3:03.04 | 0 | 13728
2 | 3:03.04 | 6:05.15 | 13729 | 41118
3 | 9:08.19 | 6:20.06 | 41119 | 69624
4 | 15:28.25 | 3:05.65 | 69625 | 83564
5 | 18:34.15 | 2:25.64 | 83565 | 94503
6 | 21:00.04 | 4:45.50 | 94504 | 115928
7 | 25:45.54 | 2:08.49 | 115929 | 125577
8 | 27:54.28 | 2:50.19 | 125578 | 138346
9 | 30:44.47 | 3:02.44 | 138347 | 152040
10 | 33:47.16 | 4:40.74 | 152041 | 173114
11 | 38:28.15 | 8:01.26 | 173115 | 209215
12 | 46:29.41 | 4:42.43 | 209216 | 230408
13 | 51:12.09 | 8:47.66 | 230409 | 269999
14 | 60:00.00 | 4:51.45 | 270000 | 291869

Track 1

Filename C:\Hi there RIAA, What's up IFPI\M2 - Sinecore\01 - (Untitled).wav

Pre-gap length 0:00:02.00

Peak level 100.0 %
Track quality 99.9 %
Test CRC 1A89ED74
Copy CRC 1A89ED74
Accurately ripped (confidence 1) [5CD3F74C]
Copy OK

Track 2

Filename C:\Hi there RIAA, What's up IFPI\M2 - Sinecore\02 - (Untitled).wav

Pre-gap length 0:00:01.54

Peak level 100.0 %
Track quality 100.0 %
Test CRC 8108A51C
Copy CRC 8108A51C
Accurately ripped (confidence 1) [AC3682D8]
Copy OK

Track 3

Filename C:\Hi there RIAA, What's up IFPI\M2 - Sinecore\03 - (Untitled).wav

Pre-gap length 0:00:01.28

Peak level 99.4 %
Track quality 100.0 %
Test CRC 16D0F141
Copy CRC 16D0F141
Accurately ripped (confidence 1) [56FEC055]
Copy OK

Track 4

Filename C:\Hi there RIAA, What's up IFPI\M2 - Sinecore\04 - (Untitled).wav

Pre-gap length 0:00:01.14

Peak level 98.8 %
Track quality 100.0 %
Test CRC AA89D8F9
Copy CRC AA89D8F9
Accurately ripped (confidence 1) [FA1B4912]
Copy OK

Track 5

Filename C:\Hi there RIAA, What's up IFPI\M2 - Sinecore\05 - (Untitled).wav

Pre-gap length 0:00:01.97

Peak level 95.5 %
Track quality 100.0 %
Test CRC A3DC3B1E
Copy CRC A3DC3B1E
Accurately ripped (confidence 1) [3502349F]
Copy OK

Track 6

Filename C:\Hi there RIAA, What's up IFPI\M2 - Sinecore\06 - (Untitled).wav

Pre-gap length 0:00:01.16

Peak level 91.4 %
Track quality 100.0 %
Test CRC 69DA4AEF
Copy CRC 69DA4AEF
Accurately ripped (confidence 1) [FD520756]
Copy OK

Track 7

Filename C:\Hi there RIAA, What's up IFPI\M2 - Sinecore\07 - (Untitled).wav

Pre-gap length 0:00:00.73

Peak level 98.2 %
Track quality 100.0 %
Test CRC 27363053
Copy CRC 27363053
Accurately ripped (confidence 1) [0D497C57]
Copy OK

Track 8

Filename C:\Hi there RIAA, What's up IFPI\M2 - Sinecore\08 - (Untitled).wav

Pre-gap length 0:00:01.16

Peak level 97.6 %
Track quality 100.0 %
Test CRC F1219DE0
Copy CRC F1219DE0
Accurately ripped (confidence 1) [FA74A2A3]
Copy OK

Track 9

Filename C:\Hi there RIAA, What's up IFPI\M2 - Sinecore\09 - (Untitled).wav

Pre-gap length 0:00:00.98

Peak level 99.4 %
Track quality 100.0 %
Test CRC 684311DE
Copy CRC 684311DE
Accurately ripped (confidence 1) [79682FC6]
Copy OK

Track 10

Filename C:\Hi there RIAA, What's up IFPI\M2 - Sinecore\10 - (Untitled).wav

Pre-gap length 0:00:00.72

Peak level 99.3 %
Track quality 100.0 %
Test CRC 68E5F626
Copy CRC 68E5F626
Accurately ripped (confidence 1) [D15D19CD]
Copy OK

Track 11

Filename C:\Hi there RIAA, What's up IFPI\M2 - Sinecore\11 - (Untitled).wav

Pre-gap length 0:00:01.84

Peak level 97.8 %
Track quality 100.0 %
Test CRC F2D2C942
Copy CRC F2D2C942
Accurately ripped (confidence 1) [7F479A56]
Copy OK

Track 12

Filename C:\Hi there RIAA, What's up IFPI\M2 - Sinecore\12 - (Untitled).wav

Pre-gap length 0:00:01.02

Peak level 99.0 %
Track quality 99.9 %
Test CRC 94728EE5
Copy CRC 94728EE5
Accurately ripped (confidence 1) [93BB1C4A]
Copy OK

Track 13

Filename C:\Hi there RIAA, What's up IFPI\M2 - Sinecore\13 - (Untitled).wav

Pre-gap length 0:00:00.58

Peak level 99.2 %
Track quality 100.0 %
Test CRC 08412498
Copy CRC 08412498
Accurately ripped (confidence 1) [B52A1901]
Copy OK

Track 14

Filename C:\Hi there RIAA, What's up IFPI\M2 - Sinecore\14 - (Untitled).wav

Peak level 100.0 %
Track quality 99.9 %
Test CRC 7A7BBED8
Copy CRC 7A7BBED8
Accurately ripped (confidence 1) [D8962D56]
Copy OK

All tracks accurately ripped

No errors occurred

End of status report


REM DATE 2000
REM DISCID B10F330E
REM COMMENT "ExactAudioCopy v0.99pb4"
PERFORMER "M2"
TITLE "Sinecore"
FILE "01. 0.2.20.flac" WAVE
TRACK 01 AUDIO
TITLE "0.2.20"
PERFORMER "M2"
INDEX 01 00:00:00
TRACK 02 AUDIO
TITLE "0.6.05"
PERFORMER "M2"
INDEX 00 03:01:38
FILE "02. 0.6.05.flac" WAVE
INDEX 01 00:00:00
TRACK 03 AUDIO
TITLE "0.6.20"
PERFORMER "M2"
INDEX 00 06:03:69
FILE "03. 0.6.20.flac" WAVE
INDEX 01 00:00:00
TRACK 04 AUDIO
TITLE "0.3.05"
PERFORMER "M2"
INDEX 00 06:18:70
FILE "04. 0.3.05.flac" WAVE
INDEX 01 00:00:00
TRACK 05 AUDIO
TITLE "0.2.25"
PERFORMER "M2"
INDEX 00 03:03:67
FILE "05. 0.2.25.flac" WAVE
INDEX 01 00:00:00
TRACK 06 AUDIO
TITLE "0.4.45"
PERFORMER "M2"
INDEX 00 02:24:52
FILE "06. 0.4.45.flac" WAVE
INDEX 01 00:00:00
TRACK 07 AUDIO
TITLE "0.2.08"
PERFORMER "M2"
INDEX 00 04:44:70
FILE "07. 0.2.08.flac" WAVE
INDEX 01 00:00:00
TRACK 08 AUDIO
TITLE "0.2.50"
PERFORMER "M2"
INDEX 00 02:07:37
FILE "08. 0.2.50.flac" WAVE
INDEX 01 00:00:00
TRACK 09 AUDIO
TITLE "0.3.02"
PERFORMER "M2"
INDEX 00 02:49:20
FILE "09. 0.3.02.flac" WAVE
INDEX 01 00:00:00
TRACK 10 AUDIO
TITLE "0.4.41"
PERFORMER "M2"
INDEX 00 03:01:65
FILE "10. 0.4.41.flac" WAVE
INDEX 01 00:00:00
TRACK 11 AUDIO
TITLE "0.8.01"
PERFORMER "M2"
INDEX 00 04:39:11
FILE "11. 0.8.01.flac" WAVE
INDEX 01 00:00:00
TRACK 12 AUDIO
TITLE "0.4.42"
PERFORMER "M2"
INDEX 00 08:00:24
FILE "12. 0.4.42.flac" WAVE
INDEX 01 00:00:00
TRACK 13 AUDIO
TITLE "0.8.01"
PERFORMER "M2"
INDEX 00 04:41:74
FILE "13. 0.8.01.flac" WAVE
INDEX 01 00:00:00
FILE "14. Sinecore.flac" WAVE
TRACK 14 AUDIO
TITLE "Sinecore"
PERFORMER "M2"
INDEX 01 00:00:00

Год выпуска: 2001
Продолжительность: 00:40:29
Треклист:

01. Kopyright Liberation (07:46)
02. Protect (07:50)
03. Trancentral (04:18)
04. Clarity (06:17)
05. Ru Con (06:48)
06. Reefer Spin (07:30)

-----------------------

DON'T MODIFY THIS FILE

-----------------------

PERFORMER: auCDtect Task Manager, ver. 1.6.0 RC1 build 1.6.0.1
Copyright (c) 2008-2010 y-soft. All rights reserved
http://y-soft.org

ANALYZER: auCDtect: CD records authenticity detector, version 0.8.2
Copyright (c) 2004 Oleg Berngardt. All rights reserved.
Copyright (c) 2004 Alexander Djourik. All rights reserved.

FILE: 06. Reefer Spin.flac
Size: 34522830 Hash: 034D0339A44B27436DFEBFCF41F827F9 Accuracy: -m0
Conclusion: CDDA 100%
Signature: 10C0CB30C7392B746B43A2AA57C2489D288DB58D
FILE: 05. Ru Con.flac
Size: 30564169 Hash: A7E5C39BEFF608DF3E7F0C22B6CE3564 Accuracy: -m0
Conclusion: CDDA 100%
Signature: 411445B3DC0729B88190CB5D033DC200BC2FAF84
FILE: 04. Clarity.flac
Size: 28714267 Hash: BDE257EA1F6D214E69BFFFB2417AA85E Accuracy: -m0
Conclusion: CDDA 100%
Signature: 0440C00297A57D61C0DA512D680E0684C3D5A1FC
FILE: 03. Trancentral.flac
Size: 18679840 Hash: 217CCD22BD4FBE0D36B8473D9ACEE5EF Accuracy: -m0
Conclusion: CDDA 100%
Signature: E295BABC97A80B59879C9C081CEEEE94DB9AFF24
FILE: 02. Protect.flac
Size: 34678169 Hash: 8977960D383F43A65C5CB187716EB044 Accuracy: -m0
Conclusion: CDDA 100%
Signature: 5556B9E38CBAB56BD9AEA17621336512652F4E75
FILE: 01. Kopyright Liberation.flac
Size: 35318159 Hash: 94F071D7C7DF7A1F8E0F0CB5F885D58B Accuracy: -m0
Conclusion: CDDA 100%
Signature: 8610E1F310D776D684459130A502FCDF57ED7A8D

Ortofon OMB 5E
Pro-Ject Debut III
Onkyo TX-SR805
M-Audio Delta 1010LT
Sony Sound Forge v10.0c
Год выпуска: 2001
Продолжительность: 01:05:26
Треклист:

01. Parsec (11:02)
02. Our New Found Unity (11:21)
03. Synthetica (08:49)
04. What Are They Preparing Us For? (09:35)
05. Drawn To The Same Thing (09:49)
06. As The Doubt Creeps Back In (06:02)
07. How Can I Explain? (08:48)

Exact Audio Copy V0.99 prebeta 4 from 23. January 2008

EAC extraction logfile from 13. December 2008, 6:45

m2 / Parsec

Used drive : _NEC DVD_RW ND-3550A Adapter: 0 ID: 0

Read mode : Secure
Utilize accurate stream : Yes
Defeat audio cache : Yes
Make use of C2 pointers : No

Read offset correction : 48
Overread into Lead-In and Lead-Out : No
Fill up missing offset samples with silence : Yes
Delete leading and trailing silent blocks : No
Null samples used in CRC calculations : Yes
Used interface : Installed external ASPI interface
Gap handling : Appended to previous track

Used output format : User Defined Encoder
Selected bitrate : 1024 kBit/s
Quality : High
Add ID3 tag : No
Command line compressor : D:\Programs\Tools\_Exact Audio Copy\FLAC\FLAC.EXE
Additional command line options : -8 -V -T "ARTIST=%a" -T "TITLE=%t" -T "ALBUM=%g" -T "DATE=%y" -T "TRACKNUMBER=%n" -T "GENRE=%m" -T "COMMENT=%e" %s -o %d

TOC of the extracted CD

Track | Start | Length | Start sector | End sector
---------------------------------------------------------
1 | 0:00.00 | 11:02.05 | 0 | 49654
2 | 11:02.05 | 11:21.04 | 49655 | 100733
3 | 22:23.09 | 8:49.23 | 100734 | 140431
4 | 31:12.32 | 9:34.70 | 140432 | 183551
5 | 40:47.27 | 9:49.12 | 183552 | 227738
6 | 50:36.39 | 6:01.50 | 227739 | 254863
7 | 56:38.14 | 8:47.47 | 254864 | 294435

Track 1

Filename G:\EAC Temporare\01 Parsec.wav

Pre-gap length 0:00:02.00

Peak level 98.8 %
Track quality 100.0 %
Test CRC EDA3C111
Copy CRC EDA3C111
Track not present in AccurateRip database
Copy OK

Track 2

Filename G:\EAC Temporare\02 Our New Found Unity.wav

Peak level 98.8 %
Track quality 99.9 %
Test CRC 1B6BA4DD
Copy CRC 1B6BA4DD
Track not present in AccurateRip database
Copy OK

Track 3

Filename G:\EAC Temporare\03 Synthetica.wav

Peak level 98.8 %
Track quality 99.9 %
Test CRC EC292D8A
Copy CRC EC292D8A
Track not present in AccurateRip database
Copy OK

Track 4

Filename G:\EAC Temporare\04 What Are They Preparing Us For .wav

Peak level 98.8 %
Track quality 100.0 %
Test CRC 0A2FDC16
Copy CRC 0A2FDC16
Track not present in AccurateRip database
Copy OK

Track 5

Filename G:\EAC Temporare\05 Drawn To The Same Thing.wav

Peak level 98.8 %
Track quality 100.0 %
Test CRC B4E3E9AB
Copy CRC B4E3E9AB
Track not present in AccurateRip database
Copy OK

Track 6

Filename G:\EAC Temporare\06 As The Doubt Creeps Back In.wav

Peak level 98.8 %
Track quality 100.0 %
Test CRC F110E418
Copy CRC F110E418
Track not present in AccurateRip database
Copy OK

Track 7

Filename G:\EAC Temporare\07 How Can I Explain .wav

Peak level 98.8 %
Track quality 100.0 %
Test CRC DD42D872
Copy CRC DD42D872
Track not present in AccurateRip database
Copy OK

None of the tracks are present in the AccurateRip database

No errors occurred

End of status report


REM GENRE Dark Ambient, Glitch, Minimal
REM DATE 2001
REM DISCID 5B0F5507
REM COMMENT ExactAudioCopy v0.99pb4
PERFORMER "m2"
TITLE "Parsec"
FILE "01 Parsec.flac" WAVE
TRACK 01 AUDIO
TITLE "Parsec"
INDEX 01 00:00:00
FILE "02 Our New Found Unity.flac" WAVE
TRACK 02 AUDIO
TITLE "Our New Found Unity"
INDEX 01 00:00:00
FILE "03 Synthetica.flac" WAVE
TRACK 03 AUDIO
TITLE "Synthetica"
INDEX 01 00:00:00
FILE "04 What Are They Preparing Us For .flac" WAVE
TRACK 04 AUDIO
TITLE "What Are They Preparing Us For?"
INDEX 01 00:00:00
FILE "05 Drawn To The Same Thing.flac" WAVE
TRACK 05 AUDIO
TITLE "Drawn To The Same Thing"
INDEX 01 00:00:00
FILE "06 As The Doubt Creeps Back In.flac" WAVE
TRACK 06 AUDIO
TITLE "As The Doubt Creeps Back In"
INDEX 01 00:00:00
FILE "07 How Can I Explain .flac" WAVE
TRACK 07 AUDIO
TITLE "How Can I Explain?"
INDEX 01 00:00:00

Год выпуска: 2001
Продолжительность: 00:54:06
Треклист:

01. Codebreaker (02:54)
02. The Outpost (03:49)
03. Dreadful Menace (06:18)
04. Stealing The Truth (04:21)
05. In The Midst (08:21)
06. Counter Insurgency (04:47)
07. They Ran (07:02)
08. Negative Architecture (03:18)
09. Dim Of Light (06:58)
10. Neuronaut (06:18)

Exact Audio Copy V1.0 beta 1 from 15. November 2010

EAC extraction logfile from 27. February 2011, 22:03

Xingu Hill + m² / This Anxious Space

Used drive : TSSTcorpCDDVDW SH-S223C Adapter: 3 ID: 0

Read mode : Secure
Utilize accurate stream : Yes
Defeat audio cache : Yes
Make use of C2 pointers : No

Read offset correction : 697
Overread into Lead-In and Lead-Out : No
Fill up missing offset samples with silence : Yes
Delete leading and trailing silent blocks : No
Null samples used in CRC calculations : Yes
Used interface : Native Win32 interface for Win NT & 2000
Gap handling : Appended to previous track

Used output format : User Defined Encoder
Selected bitrate : 128 kBit/s
Quality : High
Add ID3 tag : No
Command line compressor : C:\Program Files (x86)\Exact Audio Copy\Flac\flac.exe
Additional command line options : -V -8 -T "artist=%a" -T "title=%t" -T "album=%g" -T "date=%y" -T "tracknumber=%n" -T "genre=%m" %s

TOC of the extracted CD

Track | Start | Length | Start sector | End sector
---------------------------------------------------------
1 | 0:00.00 | 2:53.52 | 0 | 13026
2 | 2:53.52 | 3:48.43 | 13027 | 30169
3 | 6:42.20 | 6:17.74 | 30170 | 58518
4 | 13:00.19 | 4:20.54 | 58519 | 78072
5 | 17:20.73 | 8:21.27 | 78073 | 115674
6 | 25:42.25 | 4:47.24 | 115675 | 137223
7 | 30:29.49 | 7:02.00 | 137224 | 168873
8 | 37:31.49 | 3:17.50 | 168874 | 183698
9 | 40:49.24 | 6:58.22 | 183699 | 215070
10 | 47:47.46 | 6:17.52 | 215071 | 243397

Track 1

Filename F:\FLACRIPS\Xingu Hill + m² - 2001 - This Anxious Space\01 - Xingu Hill + m² - Codebreaker.wav

Pre-gap length 0:00:02.00

Peak level 66.5 %
Extraction speed 0.4 X
Track quality 99.9 %
Test CRC 84967E53
Copy CRC 84967E53
Track not present in AccurateRip database
Copy OK

Track 2

Filename F:\FLACRIPS\Xingu Hill + m² - 2001 - This Anxious Space\02 - Xingu Hill + m² - The Outpost.wav

Peak level 96.6 %
Extraction speed 2.1 X
Track quality 100.0 %
Test CRC D9C79299
Copy CRC D9C79299
Track not present in AccurateRip database
Copy OK

Track 3

Filename F:\FLACRIPS\Xingu Hill + m² - 2001 - This Anxious Space\03 - Xingu Hill + m² - Dreadful Menace.wav

Peak level 69.4 %
Extraction speed 2.5 X
Track quality 100.0 %
Test CRC 961BAACB
Copy CRC 961BAACB
Track not present in AccurateRip database
Copy OK

Track 4

Filename F:\FLACRIPS\Xingu Hill + m² - 2001 - This Anxious Space\04 - Xingu Hill + m² - Stealing The Truth.wav

Peak level 96.6 %
Extraction speed 2.7 X
Track quality 100.0 %
Test CRC 35BA0E4C
Copy CRC 35BA0E4C
Track not present in AccurateRip database
Copy OK

Track 5

Filename F:\FLACRIPS\Xingu Hill + m² - 2001 - This Anxious Space\05 - Xingu Hill + m² - In The Midst.wav

Peak level 90.4 %
Extraction speed 3.1 X
Track quality 100.0 %
Test CRC D88A20AB
Copy CRC D88A20AB
Track not present in AccurateRip database
Copy OK

Track 6

Filename F:\FLACRIPS\Xingu Hill + m² - 2001 - This Anxious Space\06 - Xingu Hill + m² - Counter Insurgency.wav

Peak level 90.5 %
Extraction speed 3.2 X
Track quality 100.0 %
Test CRC 7334EF66
Copy CRC 7334EF66
Track not present in AccurateRip database
Copy OK

Track 7

Filename F:\FLACRIPS\Xingu Hill + m² - 2001 - This Anxious Space\07 - Xingu Hill + m² - They Ran.wav

Pre-gap length 0:00:02.00

Peak level 77.9 %
Extraction speed 3.6 X
Track quality 100.0 %
Test CRC 12BE1EE0
Copy CRC 12BE1EE0
Track not present in AccurateRip database
Copy OK

Track 8

Filename F:\FLACRIPS\Xingu Hill + m² - 2001 - This Anxious Space\08 - Xingu Hill + m² - Negative Architecture.wav

Peak level 96.6 %
Extraction speed 3.4 X
Track quality 100.0 %
Test CRC FCBD6CA7
Copy CRC FCBD6CA7
Track not present in AccurateRip database
Copy OK

Track 9

Filename F:\FLACRIPS\Xingu Hill + m² - 2001 - This Anxious Space\09 - Xingu Hill + m² - Dim Of Light.wav

Peak level 96.5 %
Extraction speed 3.9 X
Track quality 100.0 %
Test CRC F26D9B69
Copy CRC F26D9B69
Track not present in AccurateRip database
Copy OK

Track 10

Filename F:\FLACRIPS\Xingu Hill + m² - 2001 - This Anxious Space\10 - Xingu Hill + m² - Neuronaut.wav

Pre-gap length 0:00:02.00

Peak level 81.7 %
Extraction speed 4.1 X
Track quality 100.0 %
Test CRC 50E6C274
Copy CRC 50E6C274
Track not present in AccurateRip database
Copy OK

None of the tracks are present in the AccurateRip database

No errors occurred

End of status report

==== Log checksum 90520B0231BECAD3A8FEC0B525CF880FF85F423ACB560C64EED239A977E6DAAC ====


REM GENRE IDM
REM DATE 2001
REM DISCID 7B0CAD0A
REM COMMENT "ExactAudioCopy v1.0b1"
PERFORMER "Xingu Hill + mІ"
TITLE "This Anxious Space"
FILE "01 - Xingu Hill + mІ - Codebreaker.wav" WAVE
TRACK 01 AUDIO
TITLE "Codebreaker"
PERFORMER "Xingu Hill + mІ"
INDEX 01 00:00:00
FILE "02 - Xingu Hill + mІ - The Outpost.wav" WAVE
TRACK 02 AUDIO
TITLE "The Outpost"
PERFORMER "Xingu Hill + mІ"
INDEX 01 00:00:00
FILE "03 - Xingu Hill + mІ - Dreadful Menace.wav" WAVE
TRACK 03 AUDIO
TITLE "Dreadful Menace"
PERFORMER "Xingu Hill + mІ"
INDEX 01 00:00:00
FILE "04 - Xingu Hill + mІ - Stealing The Truth.wav" WAVE
TRACK 04 AUDIO
TITLE "Stealing The Truth"
PERFORMER "Xingu Hill + mІ"
INDEX 01 00:00:00
FILE "05 - Xingu Hill + mІ - In The Midst.wav" WAVE
TRACK 05 AUDIO
TITLE "In The Midst"
PERFORMER "Xingu Hill + mІ"
INDEX 01 00:00:00
FILE "06 - Xingu Hill + mІ - Counter Insurgency.wav" WAVE
TRACK 06 AUDIO
TITLE "Counter Insurgency"
PERFORMER "Xingu Hill + mІ"
INDEX 01 00:00:00
TRACK 07 AUDIO
TITLE "They Ran"
PERFORMER "Xingu Hill + mІ"
INDEX 00 04:45:24
FILE "07 - Xingu Hill + mІ - They Ran.wav" WAVE
INDEX 01 00:00:00
FILE "08 - Xingu Hill + mІ - Negative Architecture.wav" WAVE
TRACK 08 AUDIO
TITLE "Negative Architecture"
PERFORMER "Xingu Hill + mІ"
INDEX 01 00:00:00
FILE "09 - Xingu Hill + mІ - Dim Of Light.wav" WAVE
TRACK 09 AUDIO
TITLE "Dim Of Light"
PERFORMER "Xingu Hill + mІ"
INDEX 01 00:00:00
TRACK 10 AUDIO
TITLE "Neuronaut"
PERFORMER "Xingu Hill + mІ"
INDEX 00 06:56:22
FILE "10 - Xingu Hill + mІ - Neuronaut.wav" WAVE
INDEX 01 00:00:00

Год выпуска: 2002
Продолжительность: 00:56:59
Треклист:

01. An Eye Rimmed With Fire (09:21)
02. A Dark Shadow (08:37)
03. Beyond The Ancient Stronghold (09:45)
04. In The Far Distance (08:45)
05. The Hammer Of The Underworld (11:10)
06. The Weakest Point (09:21)

Exact Audio Copy V0.99 prebeta 4 from 23. January 2008

EAC extraction logfile from 19. March 2008, 21:53

Squaremeter / The Bitter End

Used drive : PHILIPS DVD+-RW DVD8701 Adapter: 0 ID: 1

Read mode : Secure
Utilize accurate stream : Yes
Defeat audio cache : Yes
Make use of C2 pointers : No

Read offset correction : 618
Overread into Lead-In and Lead-Out : No
Fill up missing offset samples with silence : Yes
Delete leading and trailing silent blocks : No
Null samples used in CRC calculations : Yes
Used interface : Installed external ASPI interface
Gap handling : Appended to previous track

Used output format : User Defined Encoder
Selected bitrate : 128 kBit/s
Quality : High
Add ID3 tag : No
Command line compressor : C:\Program Files\Exact Audio Copy\Flac\flac.exe
Additional command line options : -V -8 -T "artist=%a" -T "title=%t" -T "album=%g" -T "date=%y" -T "tracknumber=%n" -T "genre=%m" %s

TOC of the extracted CD

Track | Start | Length | Start sector | End sector
---------------------------------------------------------
1 | 0:00.00 | 9:21.30 | 0 | 42104
2 | 9:21.30 | 8:37.21 | 42105 | 80900
3 | 17:58.51 | 9:44.72 | 80901 | 124772
4 | 27:43.48 | 8:44.66 | 124773 | 164138
5 | 36:28.39 | 11:09.74 | 164139 | 214387
6 | 47:38.38 | 9:20.40 | 214388 | 256427

Track 1

Filename C:\A\B\Squaremeter - The Bitter End [flac]\01 - An Eye Rimmed With Fire.wav

Pre-gap length 0:00:02.00

Peak level 83.8 %
Track quality 100.0 %
Test CRC 9CD76312
Copy CRC 9CD76312
Track not present in AccurateRip database
Copy OK

Track 2

Filename C:\A\B\Squaremeter - The Bitter End [flac]\02 - A Dark Shadow.wav

Pre-gap length 0:00:02.82

Peak level 88.5 %
Track quality 100.0 %
Test CRC 2E1A42B3
Copy CRC 2E1A42B3
Track not present in AccurateRip database
Copy OK

Track 3

Filename C:\A\B\Squaremeter - The Bitter End [flac]\03 - Beyond The Ancient Stronghold.wav

Pre-gap length 0:00:02.82

Peak level 90.1 %
Track quality 100.0 %
Test CRC 91F0D265
Copy CRC 91F0D265
Track not present in AccurateRip database
Copy OK

Track 4

Filename C:\A\B\Squaremeter - The Bitter End [flac]\04 - In The Far Distance.wav

Pre-gap length 0:00:01.24

Peak level 100.0 %
Track quality 100.0 %
Test CRC 869B3F16
Copy CRC 869B3F16
Track not present in AccurateRip database
Copy OK

Track 5

Filename C:\A\B\Squaremeter - The Bitter End [flac]\05 - The Hammer Of The Underworld.wav

Pre-gap length 0:00:02.30

Peak level 100.0 %
Track quality 100.0 %
Test CRC EEB1D62F
Copy CRC EEB1D62F
Track not present in AccurateRip database
Copy OK

Track 6

Filename C:\A\B\Squaremeter - The Bitter End [flac]\06 - The Weakest Point.wav

Pre-gap length 0:00:02.22

Peak level 100.0 %
Track quality 99.9 %
Test CRC 52C3A952
Copy CRC 52C3A952
Track not present in AccurateRip database
Copy OK

None of the tracks are present in the AccurateRip database

No errors occurred

End of status report


REM GENRE Ambient
REM DATE 2002
REM DISCID 470D5B06
REM COMMENT "ExactAudioCopy v0.99pb4"
PERFORMER "Squaremeter"
TITLE "The Bitter End "
FILE "01 - An Eye Rimmed With Fire.wav" WAVE
TRACK 01 AUDIO
TITLE "An Eye Rimmed With Fire"
PERFORMER "Squaremeter"
FLAGS DCP
INDEX 01 00:00:00
TRACK 02 AUDIO
TITLE "A Dark Shadow"
PERFORMER "Squaremeter"
FLAGS DCP
INDEX 00 09:18:43
FILE "02 - A Dark Shadow.wav" WAVE
INDEX 01 00:00:00
TRACK 03 AUDIO
TITLE "Beyond The Ancient Stronghold"
PERFORMER "Squaremeter"
FLAGS DCP
INDEX 00 08:34:34
FILE "03 - Beyond The Ancient Stronghold.wav" WAVE
INDEX 01 00:00:00
TRACK 04 AUDIO
TITLE "In The Far Distance"
PERFORMER "Squaremeter"
FLAGS DCP
INDEX 00 09:43:54
FILE "04 - In The Far Distance.wav" WAVE
INDEX 01 00:00:00
TRACK 05 AUDIO
TITLE "The Hammer Of The Underworld"
PERFORMER "Squaremeter"
FLAGS DCP
INDEX 00 08:42:43
FILE "05 - The Hammer Of The Underworld.wav" WAVE
INDEX 01 00:00:00
TRACK 06 AUDIO
TITLE "The Weakest Point"
PERFORMER "Squaremeter"
FLAGS DCP
INDEX 00 11:07:57
FILE "06 - The Weakest Point.wav" WAVE
INDEX 01 00:00:00

Год выпуска: 2003
Продолжительность: 01:04:03
Треклист:

01. The Cry Of Morgoth (07:11)
02. Turbulent Sound (08:37)
03. Discord (War Of Sound) (08:41)
04. The Music Seized (08:04)
05. The Scourges Of Fire (10:22)
06. Thus Began Also... (11:27)
07. In Ages Forgotten (09:41)

Exact Audio Copy V0.99 prebeta 4 from 23. January 2008

EAC extraction logfile from 6. May 2008, 15:51

Squaremeter / War Of Sound

Used drive : TSSTcorpDVD+-RW TS-H653B Adapter: 1 ID: 0

Read mode : Secure
Utilize accurate stream : Yes
Defeat audio cache : Yes
Make use of C2 pointers : No

Read offset correction : 6
Overread into Lead-In and Lead-Out : No
Fill up missing offset samples with silence : Yes
Delete leading and trailing silent blocks : No
Null samples used in CRC calculations : Yes
Used interface : Installed external ASPI interface
Gap handling : Appended to previous track

Used output format : User Defined Encoder
Selected bitrate : 192 kBit/s
Quality : High
Add ID3 tag : No
Command line compressor : C:\Program Files\Exact Audio Copy\Flac\flac.exe
Additional command line options : -V -8 -T "artist=%a" -T "title=%t" -T "album=%g" -T "date=%y" -T "tracknumber=%n" -T "genre=%m" %s

TOC of the extracted CD

Track | Start | Length | Start sector | End sector
---------------------------------------------------------
1 | 0:00.00 | 7:11.20 | 0 | 32344
2 | 7:11.20 | 8:37.20 | 32345 | 71139
3 | 15:48.40 | 8:40.43 | 71140 | 110182
4 | 24:29.08 | 8:03.42 | 110183 | 146449
5 | 32:32.50 | 10:21.66 | 146450 | 193090
6 | 42:54.41 | 11:26.69 | 193091 | 244609
7 | 54:21.35 | 9:40.61 | 244610 | 288170

Track 1

Filename C:\A\Squaremeter - War Of Sound [flac]\01 - The Cry Of Morgoth.wav

Pre-gap length 0:00:02.00

Peak level 96.6 %
Track quality 100.0 %
Test CRC 09175F7F
Copy CRC 09175F7F
Accurately ripped (confidence 1) [6E5C11F9]
Copy OK

Track 2

Filename C:\A\Squaremeter - War Of Sound [flac]\02 - Turbulent Sound.wav

Peak level 90.6 %
Track quality 100.0 %
Test CRC 423C6ED0
Copy CRC 423C6ED0
Accurately ripped (confidence 1) [61DDFA8C]
Copy OK

Track 3

Filename C:\A\Squaremeter - War Of Sound [flac]\03 - Discord (War Of Sound).wav

Peak level 96.6 %
Track quality 100.0 %
Test CRC 4219C6C9
Copy CRC 4219C6C9
Accurately ripped (confidence 1) [0715DD1F]
Copy OK

Track 4

Filename C:\A\Squaremeter - War Of Sound [flac]\04 - The Music Seized.wav

Peak level 91.2 %
Track quality 100.0 %
Test CRC 9DC40176
Copy CRC 9DC40176
Accurately ripped (confidence 1) [AFC191C4]
Copy OK

Track 5

Filename C:\A\Squaremeter - War Of Sound [flac]\05 - The Scourges Of Fire.wav

Peak level 96.6 %
Track quality 100.0 %
Test CRC 750695D8
Copy CRC 750695D8
Accurately ripped (confidence 1) [563E7DFE]
Copy OK

Track 6

Filename C:\A\Squaremeter - War Of Sound [flac]\06 - Thus Began Also....wav

Peak level 96.5 %
Track quality 100.0 %
Test CRC EAB8A677
Copy CRC EAB8A677
Accurately ripped (confidence 1) [0069D097]
Copy OK

Track 7

Filename C:\A\Squaremeter - War Of Sound [flac]\07 - In Ages Forgotten.wav

Peak level 85.7 %
Track quality 100.0 %
Test CRC CC239355
Copy CRC CC239355
Accurately ripped (confidence 1) [9BE89E98]
Copy OK

All tracks accurately ripped

No errors occurred

End of status report


REM GENRE Industrial
REM DATE 2003
REM DISCID 5C0F0207
REM COMMENT "ExactAudioCopy v0.99pb4"
PERFORMER "Squaremeter"
TITLE "War Of Sound"
FILE "01 - The Cry Of Morgoth.wav" WAVE
TRACK 01 AUDIO
TITLE "The Cry Of Morgoth"
PERFORMER "Squaremeter"
INDEX 01 00:00:00
FILE "02 - Turbulent Sound.wav" WAVE
TRACK 02 AUDIO
TITLE "Turbulent Sound"
PERFORMER "Squaremeter"
INDEX 01 00:00:00
FILE "03 - Discord (War Of Sound).wav" WAVE
TRACK 03 AUDIO
TITLE "Discord (War Of Sound)"
PERFORMER "Squaremeter"
INDEX 01 00:00:00
FILE "04 - The Music Seized.wav" WAVE
TRACK 04 AUDIO
TITLE "The Music Seized"
PERFORMER "Squaremeter"
INDEX 01 00:00:00
FILE "05 - The Scourges Of Fire.wav" WAVE
TRACK 05 AUDIO
TITLE "The Scourges Of Fire"
PERFORMER "Squaremeter"
INDEX 01 00:00:00
FILE "06 - Thus Began Also....wav" WAVE
TRACK 06 AUDIO
TITLE "Thus Began Also..."
PERFORMER "Squaremeter"
INDEX 01 00:00:00
FILE "07 - In Ages Forgotten.wav" WAVE
TRACK 07 AUDIO
TITLE "In Ages Forgotten"
PERFORMER "Squaremeter"
INDEX 01 00:00:00

Год выпуска: 2004
Продолжительность: 01:07:34
Треклист:

01. Sifer (10:26)
02. Tahat (07:05)
03. Aswad (05:58)
04. Kefaya (08:35)
05. Faregh (07:33)
06. Imsak (08:26)
07. Khalast (08:12)
08. Wala Hayoh (11:19)

Exact Audio Copy V0.99 prebeta 4 from 23. January 2008

EAC extraction logfile from 11. December 2008, 2:01

m2 / Aswad

Used drive : TEAC CD-W540E Adapter: 3 ID: 0

Read mode : Secure
Utilize accurate stream : Yes
Defeat audio cache : Yes
Make use of C2 pointers : No

Read offset correction : 686
Overread into Lead-In and Lead-Out : No
Fill up missing offset samples with silence : Yes
Delete leading and trailing silent blocks : No
Null samples used in CRC calculations : Yes
Used interface : Installed external ASPI interface
Gap handling : Appended to previous track

Used output format : User Defined Encoder
Selected bitrate : 1024 kBit/s
Quality : High
Add ID3 tag : No
Command line compressor : D:\Programs\Tools\_Exact Audio Copy\FLAC\FLAC.EXE
Additional command line options : -8 -V -T "ARTIST=%a" -T "TITLE=%t" -T "ALBUM=%g" -T "DATE=%y" -T "TRACKNUMBER=%n" -T "GENRE=%m" -T "COMMENT=%e" %s -o %d

TOC of the extracted CD

Track | Start | Length | Start sector | End sector
---------------------------------------------------------
1 | 0:00.00 | 10:26.24 | 0 | 46973
2 | 10:26.24 | 7:04.63 | 46974 | 78836
3 | 17:31.12 | 5:57.61 | 78837 | 105672
4 | 23:28.73 | 8:35.01 | 105673 | 144298
5 | 32:03.74 | 7:32.71 | 144299 | 178269
6 | 39:36.70 | 8:25.67 | 178270 | 216211
7 | 48:02.62 | 8:12.07 | 216212 | 253118
8 | 56:14.69 | 11:18.51 | 253119 | 304019

Track 1

Filename G:\EAC Temporare\01 Sifer.wav

Pre-gap length 0:00:02.00

Peak level 96.6 %
Track quality 100.0 %
Test CRC 261678B3
Copy CRC 261678B3
Track not present in AccurateRip database
Copy OK

Track 2

Filename G:\EAC Temporare\02 Tahat.wav

Pre-gap length 0:00:03.00

Peak level 96.6 %
Track quality 100.0 %
Test CRC F9D80816
Copy CRC F9D80816
Track not present in AccurateRip database
Copy OK

Track 3

Filename G:\EAC Temporare\03 Aswad.wav

Pre-gap length 0:00:03.00

Peak level 96.6 %
Track quality 100.0 %
Test CRC 2ADCF5A6
Copy CRC 2ADCF5A6
Track not present in AccurateRip database
Copy OK

Track 4

Filename G:\EAC Temporare\04 Kefaya.wav

Pre-gap length 0:00:03.00

Peak level 96.6 %
Track quality 99.9 %
Test CRC 3B1269FF
Copy CRC 3B1269FF
Track not present in AccurateRip database
Copy OK

Track 5

Filename G:\EAC Temporare\05 Faregh.wav

Pre-gap length 0:00:03.00

Peak level 84.2 %
Track quality 99.9 %
Test CRC F14A9DF8
Copy CRC F14A9DF8
Track not present in AccurateRip database
Copy OK

Track 6

Filename G:\EAC Temporare\06 Imsak.wav

Pre-gap length 0:00:03.00

Peak level 96.6 %
Track quality 100.0 %
Test CRC CF5B8D2F
Copy CRC CF5B8D2F
Track not present in AccurateRip database
Copy OK

Track 7

Filename G:\EAC Temporare\07 Khalast.wav

Pre-gap length 0:00:03.00

Peak level 90.4 %
Track quality 99.9 %
Test CRC F75E34B8
Copy CRC F75E34B8
Track not present in AccurateRip database
Copy OK

Track 8

Filename G:\EAC Temporare\08 Wala Hayoh.wav

Pre-gap length 0:00:03.00

Peak level 90.7 %
Track quality 99.9 %
Test CRC 8AB10BCF
Copy CRC 8AB10BCF
Track not present in AccurateRip database
Copy OK

None of the tracks are present in the AccurateRip database

No errors occurred

End of status report


REM GENRE Dark Ambient, Industrial
REM DATE 2004
REM DISCID 6F0FD508
REM COMMENT ExactAudioCopy v0.99pb4
PERFORMER "m2"
TITLE "Aswad"
FILE "01 Sifer.flac" WAVE
TRACK 01 AUDIO
TITLE "Sifer"
INDEX 01 00:00:00
FILE "02 Tahat.flac" WAVE
TRACK 02 AUDIO
TITLE "Tahat"
INDEX 00 00:00:00
INDEX 01 00:03:00
FILE "03 Aswad.flac" WAVE
TRACK 03 AUDIO
TITLE "Aswad"
INDEX 00 00:00:00
INDEX 01 00:03:00
FILE "04 Kefaya.flac" WAVE
TRACK 04 AUDIO
TITLE "Kefaya"
INDEX 00 00:00:00
INDEX 01 00:03:00
FILE "05 Faregh.flac" WAVE
TRACK 05 AUDIO
TITLE "Faregh"
INDEX 00 00:00:00
INDEX 01 00:03:00
FILE "06 Imsak.flac" WAVE
TRACK 06 AUDIO
TITLE "Imsak"
INDEX 00 00:00:00
INDEX 01 00:03:00
FILE "07 Khalast.flac" WAVE
TRACK 07 AUDIO
TITLE "Khalast"
INDEX 00 00:00:00
INDEX 01 00:03:00
FILE "08 Wala Hayoh.flac" WAVE
TRACK 08 AUDIO
TITLE "Wala Hayoh"
INDEX 00 00:00:00
INDEX 01 00:03:00

Год выпуска: 2005
Продолжительность: 01:05:47
Треклист:

01. Morphia (08:02)
02. White Breach (06:53)
03. Acr Flow (07:10)
04. Second Angle (08:59)
05. Diffraction (08:40)
06. Gazed Radiation (06:32)
07. Reanimation Limit (07:54)
08. Deviation (11:37)

Exact Audio Copy V0.99 prebeta 3 from 28. July 2007

EAC extraction logfile from 3. June 2008, 17:22

mІ / The Frozen Spark

Used drive : PLEXTOR DVDR PX-716AL Adapter: 3 ID: 1

Read mode : Secure
Utilize accurate stream : Yes
Defeat audio cache : Yes
Make use of C2 pointers : No

Read offset correction : 30
Overread into Lead-In and Lead-Out : No
Fill up missing offset samples with silence : Yes
Delete leading and trailing silent blocks : No
Null samples used in CRC calculations : Yes
Used interface : Installed external ASPI interface
Gap handling : Appended to previous track

Used output format : User Defined Encoder
Selected bitrate : 192 kBit/s
Quality : High
Add ID3 tag : No
Command line compressor : C:\Programme\Exact Audio Copy\Flac\flac.exe
Additional command line options : -8 -A tukey(0.25) -A gauss(0.1875) -b 4096 -V -T "artist=%a" -T "title=%t" -T "album=%g" -T "date=%y" -T "tracknumber=%n" -T "genre=%m" %s --sector-align

TOC of the extracted CD

Track | Start | Length | Start sector | End sector
---------------------------------------------------------
1 | 0:00.00 | 8:01.38 | 0 | 36112
2 | 8:01.38 | 6:52.53 | 36113 | 67065
3 | 14:54.16 | 7:10.19 | 67066 | 99334
4 | 22:04.35 | 8:58.42 | 99335 | 139726
5 | 31:03.02 | 8:39.64 | 139727 | 178715
6 | 39:42.66 | 6:31.48 | 178716 | 208088
7 | 46:14.39 | 7:54.21 | 208089 | 243659
8 | 54:08.60 | 11:36.71 | 243660 | 295930

Track 1

Filename c:\work\mІ - The Frozen Spark\01 - Morphia.wav

Pre-gap length 0:00:02.00

Peak level 99.9 %
Track quality 99.9 %
Test CRC 86A66F31
Copy CRC 86A66F31
Track not present in AccurateRip database
Copy OK

Track 2

Filename c:\work\mІ - The Frozen Spark\02 - White Breach.wav

Pre-gap length 0:00:02.00

Peak level 99.1 %
Track quality 100.0 %
Test CRC AA306046
Copy CRC AA306046
Track not present in AccurateRip database
Copy OK

Track 3

Filename c:\work\mІ - The Frozen Spark\03 - Acr Flow.wav

Pre-gap length 0:00:02.00

Peak level 99.6 %
Track quality 100.0 %
Test CRC BFAACCBF
Copy CRC BFAACCBF
Track not present in AccurateRip database
Copy OK

Track 4

Filename c:\work\mІ - The Frozen Spark\04 - Second Angle.wav

Pre-gap length 0:00:02.00

Peak level 99.6 %
Track quality 100.0 %
Test CRC 723623A5
Copy CRC 723623A5
Track not present in AccurateRip database
Copy OK

Track 5

Filename c:\work\mІ - The Frozen Spark\05 - Diffraction.wav

Pre-gap length 0:00:02.00

Peak level 99.1 %
Track quality 100.0 %
Test CRC FF08B2D5
Copy CRC FF08B2D5
Track not present in AccurateRip database
Copy OK

Track 6

Filename c:\work\mІ - The Frozen Spark\06 - Gazed Radiation.wav

Pre-gap length 0:00:02.00

Peak level 99.9 %
Track quality 100.0 %
Test CRC 7F61CF0F
Copy CRC 7F61CF0F
Track not present in AccurateRip database
Copy OK

Track 7

Filename c:\work\mІ - The Frozen Spark\07 - Reanimation Limit.wav

Pre-gap length 0:00:02.00

Peak level 99.9 %
Track quality 100.0 %
Test CRC 13B2328C
Copy CRC 13B2328C
Track not present in AccurateRip database
Copy OK

Track 8

Filename c:\work\mІ - The Frozen Spark\08 - Deviation.wav

Pre-gap length 0:00:02.00

Peak level 99.4 %
Track quality 100.0 %
Test CRC 031C5A46
Copy CRC 031C5A46
Track not present in AccurateRip database
Copy OK

None of the tracks are present in the AccurateRip database

No errors occurred

End of status report


REM GENRE "Dark Ambient"
REM DATE 2005
REM DISCID 790F6908
REM COMMENT "ExactAudioCopy v0.99pb3"
PERFORMER "mІ"
TITLE "The Frozen Spark"
FILE "mІ - The Frozen Spark\01 - Morphia.wav" WAVE
TRACK 01 AUDIO
TITLE "Morphia"
PERFORMER "mІ"
INDEX 01 00:00:00
TRACK 02 AUDIO
TITLE "White Breach"
PERFORMER "mІ"
INDEX 00 07:59:38
FILE "mІ - The Frozen Spark\02 - White Breach.wav" WAVE
INDEX 01 00:00:00
TRACK 03 AUDIO
TITLE "Acr Flow"
PERFORMER "mІ"
INDEX 00 06:50:53
FILE "mІ - The Frozen Spark\03 - Acr Flow.wav" WAVE
INDEX 01 00:00:00
TRACK 04 AUDIO
TITLE "Second Angle"
PERFORMER "mІ"
INDEX 00 07:08:19
FILE "mІ - The Frozen Spark\04 - Second Angle.wav" WAVE
INDEX 01 00:00:00
TRACK 05 AUDIO
TITLE "Diffraction"
PERFORMER "mІ"
INDEX 00 08:56:42
FILE "mІ - The Frozen Spark\05 - Diffraction.wav" WAVE
INDEX 01 00:00:00
TRACK 06 AUDIO
TITLE "Gazed Radiation"
PERFORMER "mІ"
INDEX 00 08:37:64
FILE "mІ - The Frozen Spark\06 - Gazed Radiation.wav" WAVE
INDEX 01 00:00:00
TRACK 07 AUDIO
TITLE "Reanimation Limit"
PERFORMER "mІ"
INDEX 00 06:29:48
FILE "mІ - The Frozen Spark\07 - Reanimation Limit.wav" WAVE
INDEX 01 00:00:00
TRACK 08 AUDIO
TITLE "Deviation"
PERFORMER "mІ"
INDEX 00 07:52:21
FILE "mІ - The Frozen Spark\08 - Deviation.wav" WAVE
INDEX 01 00:00:00

Год выпуска: 2006
Продолжительность: 01:02:21
Треклист:

01. Moros (09:03)
02. Thanatos (08:05)
03. Hypnos (08:00)
04. Eris (08:47)
05. Nemesis (07:51)
06. Klotho (06:38)
07. Lachesis (08:30)
08. Atropos (05:27)

Exact Audio Copy V0.99 prebeta 5 from 4. May 2009

EAC extraction logfile from 18. June 2010, 15:34

Squaremeter / Nyx

Used drive : Optiarc DVD RW AD-7240S Adapter: 1 ID: 1

Read mode : Secure
Utilize accurate stream : Yes
Defeat audio cache : Yes
Make use of C2 pointers : No

Read offset correction : 48
Overread into Lead-In and Lead-Out : No
Fill up missing offset samples with silence : Yes
Delete leading and trailing silent blocks : No
Null samples used in CRC calculations : Yes
Used interface : Native Win32 interface for Win NT & 2000
Gap handling : Appended to previous track

Used output format : User Defined Encoder
Selected bitrate : 1024 kBit/s
Quality : High
Add ID3 tag : No
Command line compressor : C:\Program Files\Exact Audio Copy\Flac\flac.exe
Additional command line options : -8 -V -T "ARTIST=%a" -T "TITLE=%t" -T "ALBUM=%g" -T "DATE=%y" -T "TRACKNUMBER=%n" -T "GENRE=%m" -T "COMMENT=EAC FLAC -8" %s

TOC of the extracted CD

Track | Start | Length | Start sector | End sector
---------------------------------------------------------
1 | 0:00.00 | 9:03.29 | 0 | 40753
2 | 9:03.29 | 8:05.08 | 40754 | 77136
3 | 17:08.37 | 8:00.17 | 77137 | 113153
4 | 25:08.54 | 8:47.13 | 113154 | 152691
5 | 33:55.67 | 7:51.21 | 152692 | 188037
6 | 41:47.13 | 6:38.07 | 188038 | 217894
7 | 48:25.20 | 8:29.72 | 217895 | 256141
8 | 56:55.17 | 5:26.46 | 256142 | 280637

Track 1

Filename D:\Converted\01 - Moros.wav

Pre-gap length 0:00:02.00

Peak level 88.9 %
Track quality 100.0 %
Test CRC EC96E693
Copy CRC EC96E693
Track not present in AccurateRip database
Copy OK

Track 2

Filename D:\Converted\02 - Thanatos.wav

Peak level 100.0 %
Track quality 100.0 %
Test CRC C4799009
Copy CRC C4799009
Track not present in AccurateRip database
Copy OK

Track 3

Filename D:\Converted\03 - Hypnos.wav

Peak level 100.0 %
Track quality 100.0 %
Test CRC 359C70B2
Copy CRC 359C70B2
Track not present in AccurateRip database
Copy OK

Track 4

Filename D:\Converted\04 - Eris.wav

Peak level 100.0 %
Track quality 100.0 %
Test CRC E25D1776
Copy CRC E25D1776
Track not present in AccurateRip database
Copy OK

Track 5

Filename D:\Converted\05 - Nemesis.wav

Peak level 100.0 %
Track quality 100.0 %
Test CRC F0BA23D8
Copy CRC F0BA23D8
Track not present in AccurateRip database
Copy OK

Track 6

Filename D:\Converted\06 - Klotho.wav

Peak level 100.0 %
Track quality 100.0 %
Test CRC 85185188
Copy CRC 85185188
Track not present in AccurateRip database
Copy OK

Track 7

Filename D:\Converted\07 - Lachesis.wav

Peak level 100.0 %
Track quality 100.0 %
Test CRC 831340A0
Copy CRC 831340A0
Track not present in AccurateRip database
Copy OK

Track 8

Filename D:\Converted\08 - Atropos.wav

Peak level 100.0 %
Track quality 100.0 %
Test CRC 2ABC1164
Copy CRC 2ABC1164
Track not present in AccurateRip database
Copy OK

None of the tracks are present in the AccurateRip database

No errors occurred

End of status report


REM GENRE Ambient
REM DATE 2006
REM DISCID 580E9D08
REM COMMENT "ExactAudioCopy v0.99pb5"
PERFORMER "Squaremeter"
TITLE "Nyx"
FILE "01 - Moros.wav" WAVE
TRACK 01 AUDIO
TITLE "Moros"
PERFORMER "Squaremeter"
INDEX 01 00:00:00
FILE "02 - Thanatos.wav" WAVE
TRACK 02 AUDIO
TITLE "Thanatos"
PERFORMER "Squaremeter"
INDEX 01 00:00:00
FILE "03 - Hypnos.wav" WAVE
TRACK 03 AUDIO
TITLE "Hypnos"
PERFORMER "Squaremeter"
INDEX 01 00:00:00
FILE "04 - Eris.wav" WAVE
TRACK 04 AUDIO
TITLE "Eris"
PERFORMER "Squaremeter"
INDEX 01 00:00:00
FILE "05 - Nemesis.wav" WAVE
TRACK 05 AUDIO
TITLE "Nemesis"
PERFORMER "Squaremeter"
INDEX 01 00:00:00
FILE "06 - Klotho.wav" WAVE
TRACK 06 AUDIO
TITLE "Klotho"
PERFORMER "Squaremeter"
INDEX 01 00:00:00
FILE "07 - Lachesis.wav" WAVE
TRACK 07 AUDIO
TITLE "Lachesis"
PERFORMER "Squaremeter"
INDEX 01 00:00:00
FILE "08 - Atropos.wav" WAVE
TRACK 08 AUDIO
TITLE "Atropos"
PERFORMER "Squaremeter"
INDEX 01 00:00:00

Год выпуска: 2010
Продолжительность: 01:06:18
Треклист:

01. The Priests (09:00)
02. Winds & Ruins (05:52)
03. Heliogabal I (03:42)
04. Relics Of The Undefeated Guard (05:32)
05. The Sacred Shrine (06:37)
06. Reign (05:58)
07. Deus Sol Invictus (06:31)
08. Whores, Smoke & Shadows (05:27)
09. Square-Dimensional Space (09:10)
10. Heliogabal II (08:29)

Exact Audio Copy V0.99 prebeta 5 from 4. May 2009

EAC extraction logfile from 16. June 2010, 17:38

m2 / Heliogabal

Used drive : Optiarc DVD RW AD-7240S Adapter: 1 ID: 1

Read mode : Secure
Utilize accurate stream : Yes
Defeat audio cache : Yes
Make use of C2 pointers : No

Read offset correction : 48
Overread into Lead-In and Lead-Out : No
Fill up missing offset samples with silence : Yes
Delete leading and trailing silent blocks : No
Null samples used in CRC calculations : Yes
Used interface : Native Win32 interface for Win NT & 2000
Gap handling : Appended to previous track

Used output format : User Defined Encoder
Selected bitrate : 1024 kBit/s
Quality : High
Add ID3 tag : No
Command line compressor : C:\Program Files\Exact Audio Copy\Flac\flac.exe
Additional command line options : -8 -V -T "ARTIST=%a" -T "TITLE=%t" -T "ALBUM=%g" -T "DATE=%y" -T "TRACKNUMBER=%n" -T "GENRE=%m" -T "COMMENT=EAC FLAC -8" %s

TOC of the extracted CD

Track | Start | Length | Start sector | End sector
---------------------------------------------------------
1 | 0:00.00 | 8:59.68 | 0 | 40492
2 | 8:59.68 | 5:52.09 | 40493 | 66901
3 | 14:52.02 | 3:41.74 | 66902 | 83550
4 | 18:34.01 | 5:31.41 | 83551 | 108416
5 | 24:05.42 | 6:37.01 | 108417 | 138192
6 | 30:42.43 | 5:57.54 | 138193 | 165021
7 | 36:40.22 | 6:30.39 | 165022 | 194310
8 | 43:10.61 | 5:26.57 | 194311 | 218817
9 | 48:37.43 | 9:10.00 | 218818 | 260067
10 | 57:47.43 | 8:28.53 | 260068 | 298220

Track 1

Filename D:\Converted\01 – The Priests.wav

Pre-gap length 0:00:02.00

Peak level 99.9 %
Track quality 100.0 %
Test CRC 1D5B2645
Copy CRC 1D5B2645
Track not present in AccurateRip database
Copy OK

Track 2

Filename D:\Converted\02 – Winds & Ruins.wav

Peak level 99.9 %
Track quality 100.0 %
Test CRC 8C107651
Copy CRC 8C107651
Track not present in AccurateRip database
Copy OK

Track 3

Filename D:\Converted\03 – Heliogabal I.wav

Peak level 100.0 %
Track quality 100.0 %
Test CRC EDF5097A
Copy CRC EDF5097A
Track not present in AccurateRip database
Copy OK

Track 4

Filename D:\Converted\04 – Relics Of The Undefeated Guard.wav

Peak level 100.0 %
Track quality 100.0 %
Test CRC 82D46FF5
Copy CRC 82D46FF5
Track not present in AccurateRip database
Copy OK

Track 5

Filename D:\Converted\05 – The Sacred Shrine.wav

Peak level 100.0 %
Track quality 100.0 %
Test CRC C64383F8
Copy CRC C64383F8
Track not present in AccurateRip database
Copy OK

Track 6

Filename D:\Converted\06 – Reign.wav

Peak level 100.0 %
Track quality 100.0 %
Test CRC C5E1F7FF
Copy CRC C5E1F7FF
Track not present in AccurateRip database
Copy OK

Track 7

Filename D:\Converted\07 – Deus Sol Invictus.wav

Peak level 100.0 %
Track quality 100.0 %
Test CRC B9D6AC52
Copy CRC B9D6AC52
Track not present in AccurateRip database
Copy OK

Track 8

Filename D:\Converted\08 – Whores, Smoke & Shadows.wav

Peak level 100.0 %
Track quality 100.0 %
Test CRC 068FB448
Copy CRC 068FB448
Track not present in AccurateRip database
Copy OK

Track 9

Filename D:\Converted\09 – Square-Dimensional Space.wav

Peak level 99.8 %
Track quality 100.0 %
Test CRC 36A8772F
Copy CRC 36A8772F
Track not present in AccurateRip database
Copy OK

Track 10

Filename D:\Converted\10 – Heliogabal II.wav

Peak level 100.0 %
Track quality 100.0 %
Test CRC A793804E
Copy CRC A793804E
Track not present in AccurateRip database
Copy OK

None of the tracks are present in the AccurateRip database

No errors occurred

End of status report


REM GENRE Electronic
REM DATE 2010
REM DISCID 8E0F880A
REM COMMENT "ExactAudioCopy v0.99pb5"
PERFORMER "m2"
TITLE "Heliogabal"
FILE "01 – The Priests.wav" WAVE
TRACK 01 AUDIO
TITLE "The Priests"
PERFORMER "m2"
INDEX 01 00:00:00
FILE "02 – Winds & Ruins.wav" WAVE
TRACK 02 AUDIO
TITLE "Winds & Ruins"
PERFORMER "m2"
INDEX 01 00:00:00
FILE "03 – Heliogabal I.wav" WAVE
TRACK 03 AUDIO
TITLE "Heliogabal I"
PERFORMER "m2"
INDEX 01 00:00:00
FILE "04 – Relics Of The Undefeated Guard.wav" WAVE
TRACK 04 AUDIO
TITLE "Relics Of The Undefeated Guard"
PERFORMER "m2"
INDEX 01 00:00:00
FILE "05 – The Sacred Shrine.wav" WAVE
TRACK 05 AUDIO
TITLE "The Sacred Shrine"
PERFORMER "m2"
INDEX 01 00:00:00
FILE "06 – Reign.wav" WAVE
TRACK 06 AUDIO
TITLE "Reign"
PERFORMER "m2"
INDEX 01 00:00:00
FILE "07 – Deus Sol Invictus.wav" WAVE
TRACK 07 AUDIO
TITLE "Deus Sol Invictus"
PERFORMER "m2"
INDEX 01 00:00:00
FILE "08 – Whores, Smoke & Shadows.wav" WAVE
TRACK 08 AUDIO
TITLE "Whores, Smoke & Shadows"
PERFORMER "m2"
INDEX 01 00:00:00
FILE "09 – Square-Dimensional Space.wav" WAVE
TRACK 09 AUDIO
TITLE "Square-Dimensional Space"
PERFORMER "m2"
INDEX 01 00:00:00
FILE "10 – Heliogabal II.wav" WAVE
TRACK 10 AUDIO
TITLE "Heliogabal II"
PERFORMER "m2"
INDEX 01 00:00:00

Время раздачи: 12/7
[NNMClub.to]_m2 (Squaremeter) FLAC.torrent
 Торрент: Серебряная раздча  Зарегистрирован
 
Примагнититься
Free Leech
Зарегистрируйтесь и скачайте торрент!
31,9 KB
 Зарегистрирован:   28 Ноя 2016 23:06:57
 Размер:   3,13 GB  (
 Рейтинг:    (Голосов: 6)
 Поблагодарили:   22
 Проверка:   Оформление проверено модератором 28 Ноя 2016 23:08:02
Как cкачать  ·  Как раздать  ·  Правильно оформить  ·  Поднять ратио!  
Показать сообщения:   
Начать новую тему   Ответить на тему    Торрент-трекер NNM-Club -> Electronic -> IDM (Lossless) Часовой пояс: GMT + 3
Страница 1 из 1