Интеллигентный торрент-трекер
canvas not supported
Нас вместе: 4 100 836

Geekbrains | Веб-разработка. Быстрый старт. Основы PHP (2016) PCRec [H.264/1080p]


 
 
RSS
Начать новую тему   Ответить на тему    Торрент-трекер NNM-Club -> Обучающие видеоматериалы -> Компьютеры
Автор Сообщение
Trovel ®
Стаж: 5 лет 9 мес.
Сообщений: 2811
Ratio: 36,788
Поблагодарили: 723773
100%
Откуда: Уфа
nnm-club.gif
Geekbrains | Веб-разработка. Быстрый старт. Основы PHP (2016) PCRec
Автор (режиссер): Geekbrains
Преподаватель: Павел Тарасов
Жанр: Веб-разработка, PHP

Описание:
Курс предназначен для тех, кто хочет приобрести начальные навыки веб-разработки на PHP, изучить логику работы с этим языком и терминологию, а также понять принципы функционирования систем и веб-приложений.

В процессе обучения студенты проходят основные этапы создания простого сайта интернет-магазина и работают над его функциональностью. Знания и навыки, приобретённые на курсе, - надёжная основа для дальнейшего развития в качестве PHP-разработчика.

Продолжительность: 02:03:30
Качество видео: PCRec

Видео: AVC, 1920x1080, ~6500 Kbps
Аудио: AAC, 192 Kbps, 48.0 KHz
  • Основам веб-разработки на PHP;
  • Устанавливать сервер Apache и настраивать доступ к локальному сайту;
  • Создавать простые сайты интернет-магазинов;
  • Работать с массивами и циклами;
  • Размещать сайты в интернете.
  • Урок 1. Для чего нужен PHP
  • Урок 2. Установка и развертывание сервера на своем компьютере
  • Урок 3. Как создавать веб-страницы
  • Урок 4. Создаём макет нашего магазина
  • Урок 5. Завершаем оформление шаблона
  • Урок 6. Основы PHP
  • Урок 7. Как хранить множество связанных данных
  • Урок 8. Хранение и обработка связанных по смыслу данных
  • Урок 9. Работаем с циклами
  • Урок 10. Как сделать сайт живым
  • Урок 11. Как делать навигацию между страницами
  • Урок 12. Создаём каталог товаров
  • Урок 13. Размещаем сайт в интернете
Код: выделить все
General
Format                         : MPEG-4
Format profile                 : Base Media / Version 2
Codec ID                       : mp42
File size                      : 433 MiB
Duration                       : 8mn 33s
Overall bit rate mode          : Variable
Overall bit rate               : 7 082 Kbps
Encoded date                   : UTC 2016-09-11 13:38:12
Tagged date                    : UTC 2016-09-11 13:38:12

Video
ID                             : 2
Format                         : AVC
Format/Info                    : Advanced Video Codec
Format profile                 : Baseline@L4
Format settings, CABAC         : No
Format settings, ReFrames      : 3 frames
Format settings, GOP           : M=1, N=15
Codec ID                       : avc1
Codec ID/Info                  : Advanced Video Coding
Duration                       : 8mn 33s
Bit rate mode                  : Variable
Bit rate                       : 6 887 Kbps
Maximum bit rate               : 18.0 Mbps
Width                          : 1 920 pixels
Height                         : 1 080 pixels
Display aspect ratio           : 16:9
Frame rate mode                : Constant
Frame rate                     : 29.970 fps
Standard                       : NTSC
Color space                    : YUV
Chroma subsampling             : 4:2:0
Bit depth                      : 8 bits
Scan type                      : Progressive
Bits/(Pixel*Frame)             : 0.111
Stream size                    : 422 MiB (97%)
Language                       : English
Encoded date                   : UTC 2016-09-11 13:38:12
Tagged date                    : UTC 2016-09-11 13:38:12
Color range                    : Limited

Audio
ID                             : 1
Format                         : AAC
Format/Info                    : Advanced Audio Codec
Format profile                 : LC
Codec ID                       : 40
Duration                       : 8mn 33s
Bit rate mode                  : Constant
Bit rate                       : 192 Kbps
Channel(s)                     :  channel0
Channel(s)_Original            : 2 channels
Channel positions              : Front: L R
Sampling rate                  : 48.0 KHz
Compression mode               : Lossy
Stream size                    : 11.8 MiB (3%)
Language                       : English
Encoded date                   : UTC 2016-09-11 13:38:12
Tagged date                    : UTC 2016-09-11 13:38:12
Скриншоты:

Время раздачи: 24/7 (до появления первых 3-5 скачавших)
[NNMClub.to]_Veb-razrabotka. Byistryiy start. Osnovyi PHP.torrent
 Торрент:   Зарегистрирован
 
Примагнититься
Free Leech
Зарегистрируйтесь и скачайте торрент!
25,7 KB
 Зарегистрирован:   01 Дек 2016 09:19:19
 Размер:   5,07 GB  (
 Рейтинг:   4,7 (Голосов: 33)
 Поблагодарили:   145
 Проверка:   Оформление проверено модератором 01 Дек 2016 12:49:03
Как cкачать  ·  Как раздать  ·  Правильно оформить  ·  Поднять ратио!  


Последний раз редактировалось: Trovel (01 Дек 2016 10:35:27), всего редактировалось 2 раз(а)
derini
 
Стаж: 9 лет 9 мес.
Сообщений: 1020
Ratio: 6,665
Поблагодарили: 4489
100%
comoros.gif
Судя по эмблемке "мозга", это курс от GeekBrains.
polisma
Стаж: 10 лет 1 мес.
Сообщений: 575
Ratio: 2,293
100%
Откуда: Москва
russia.gif
derini писал(а): Перейти к сообщению
Судя по эмблемке "мозга", это курс от GeekBrains.


да тут и без эмблемки понятно что это они GeekBrains, одно дело пришлось бы выкладывать 20 к а то и больше за эти уроки, а тут бесплатно, за что автору спасибо!!! :подмигивание:
derini
 
Стаж: 9 лет 9 мес.
Сообщений: 1020
Ratio: 6,665
Поблагодарили: 4489
100%
comoros.gif
polisma писал(а): Перейти к сообщению


да тут и без эмблемки понятно что это они GeekBrains, одно дело пришлось бы выкладывать 20 к а то и больше за эти уроки


Нет, этот курс у них из серии "для первоначального заманивания клиентов", он бесплатный. Минуту назад специально проверил.)
Karlito
Стаж: 15 дней
Сообщений: 2
Ratio: 0,138
0%
Напишите, что файлов примеров нет.
terem0k
Стаж: 6 лет 3 мес.
Сообщений: 11
Ratio: 1,059
3.49%
PHP 5 или 7?
Показать сообщения:   
Начать новую тему   Ответить на тему    Торрент-трекер NNM-Club -> Обучающие видеоматериалы -> Компьютеры Часовой пояс: GMT + 3
Страница 1 из 1