Интеллигентный торрент-трекер
canvas not supported
Нас вместе: 4 111 925

Бриджит Джонс 3 / Bridget Jones's Baby (2016) BDRip [H.264/720p] [EN]


 
 
RSS
Начать новую тему   Ответить на тему    Торрент-трекер NNM-Club -> Зарубежное кино -> Фильмы в оригинале (HD)
Автор Сообщение
smaster67 ®
Модератор Видео
Покровитель талантов Uploader 300+
Стаж: 7 лет 5 мес.
Сообщений: 6272
Ratio: 180,692
Поблагодарили: 174297
100%
Бриджит Джонс 3 / Bridget Jones's Baby (2016) BDRip [H.264/720p] [EN]

Производство: Ирландия, Великобритания, Франция, США
Жанр: мелодрама, комедия

Режиссер: Шэрон Магуайр
Актеры: Рене Зеллвегер, Колин Фёрт, Патрик Демпси, Джемма Джонс, Джим Бродбент, Сэлли Филлипс, Джулиан Райнд-Татт, Эмма Томпсон, Ширли Хендерсон, Бен Уиллбонд, Пол Бенталл, Агни Скотт

Описание:
Казалось бы, и карьера - в гору, и квартира - в центре Лондона, но она не была бы Бриджит Джонс, если бы не ее способность оказываться не в то время, не в том месте, не с тем мужчиной. И теперь она понятия не имеет, кто отец ее будущего ребенка: обаятельный миллиардер или известный адвокат. Одним словом, Бриджит Джонс в очень интересном положении.



Продолжительность: 02:02:38
Качество видео: BDRip 720p
Перевод: Отсутствует
Язык озвучки: Английский

Видео: AVC, 1280x536 (2.40:1), 4869 kbps, 23,976 fps, 0,296 bpp
Аудио: английский / DTS / 5.1 / 48 kHz / 1509 kbps / 24 bit
Код: выделить все
General
Unique ID                              Bridget.Joness.Baby.2016.720p.mkv
Format                                   : Matroska
Format version                           : Version 4 / Version 2
File size                                : 5.46 GiB
Duration                                 : 2 h 2 min
Overall bit rate                         : 6 379 kb/s
Encoded date                             : UTC 2016-12-01 04:11:03
Writing application                      : mkvmerge v8.3.0 ('Over the Horizon') 64bit
Writing library                          : libebml v1.3.1 + libmatroska v1.4.2

Video
ID                                       : 1
Format                                   : AVC
Format/Info                              : Advanced Video Codec
Format profile                           : High@L4.1
Format settings, CABAC                   : Yes
Format settings, ReFrames                : 5 frames
Codec ID                                 : V_MPEG4/ISO/AVC
Duration                                 : 2 h 2 min
Bit rate                                 : 4 869 kb/s
Width                                    : 1 280 pixels
Height                                   : 536 pixels
Display aspect ratio                     : 2.40:1
Frame rate mode                          : Constant
Frame rate                               : 23.976 FPS
Color space                              : YUV
Chroma subsampling                       : 4:2:0
Bit depth                                : 8 bits
Scan type                                : Progressive
Bits/(Pixel*Frame)                       : 0.296
Stream size                              : 4.17 GiB (76%)
Writing library                          : x264 core 148 r2705 3f5ed56
Encoding settings                        : cabac=1 / ref=5 / deblock=1:0:0 / analyse=0x3:0x133 / me=umh / subme=7 / psy=1 / psy_rd=1.00:0.00 / mixed_ref=1 / me_range=16 / chroma_me=1 / trellis=1 / 8x8dct=1 / cqm=0 / deadzone=21,11 / fast_pskip=0 / chroma_qp_offset=-2 / threads=17 / lookahead_threads=2 / sliced_threads=0 / nr=0 / decimate=1 / interlaced=0 / bluray_compat=0 / constrained_intra=0 / bframes=3 / b_pyramid=2 / b_adapt=1 / b_bias=0 / direct=1 / weightb=1 / open_gop=0 / weightp=2 / keyint=250 / keyint_min=23 / scenecut=40 / intra_refresh=0 / rc_lookahead=40 / rc=2pass / mbtree=1 / bitrate=4869 / ratetol=1.0 / qcomp=0.60 / qpmin=0 / qpmax=69 / qpstep=4 / cplxblur=20.0 / qblur=0.5 / ip_ratio=1.40 / aq=1:1.00
Language                                 : English
Default                                  : Yes
Forced                                   : No

Audio
ID                                       : 2
Format                                   : DTS
Format/Info                              : Digital Theater Systems
Mode                                     : 16
Format settings, Endianness              : Big
Codec ID                                 : A_DTS
Duration                                 : 2 h 2 min
Bit rate mode                            : Constant
Bit rate                                 : 1 509 kb/s
Channel(s)                               : 6 channels
Channel positions                        : Front: L C R, Side: L R, LFE
Sampling rate                            : 48.0 kHz
Frame rate                               : 93.750 FPS (512 spf)
Bit depth                                : 24 bits
Compression mode                         : Lossy
Stream size                              : 1.29 GiB (24%)
Language                                 : English
Default                                  : Yes
Forced                                   : No

Menu
00:00:00.000                             : en:00:00:00.000
00:08:49.529                             : en:00:08:49.529
00:16:21.564                             : en:00:16:21.564
00:24:09.657                             : en:00:24:09.657
00:29:54.626                             : en:00:29:54.626
00:34:51.298                             : en:00:34:51.298
00:41:29.237                             : en:00:41:29.237
00:47:42.401                             : en:00:47:42.401
00:52:05.456                             : en:00:52:05.456
00:57:44.836                             : en:00:57:44.836
01:03:38.314                             : en:01:03:38.314
01:08:12.880                             : en:01:08:12.880
01:13:17.476                             : en:01:13:17.476
01:20:48.552                             : en:01:20:48.552
01:27:32.998                             : en:01:27:32.998
01:37:28.176                             : en:01:37:28.176
01:43:18.442                             : en:01:43:18.442
01:48:10.567                             : en:01:48:10.567
01:51:53.665                             : en:01:51:53.665
01:56:07.794                             : en:01:56:07.794

Скриншоты:



Все одноименные релизы в Клубе

Время раздачи: с 13:00 до 23:00
[NNMClub.to]_Bridget.Joness.Baby.2016.720p.mkv.torrent
 Торрент: Серебряная раздча  Зарегистрирован
 
Примагнититься
Free Leech
Зарегистрируйтесь и скачайте торрент!
27,5 KB
 Зарегистрирован:   01 Дек 2016 11:43:38
 Размер:   5,46 GB  (
 Рейтинг:    (Голосов: 5)
 Поблагодарили:   23
 Проверка:   Оформление проверено модератором 01 Дек 2016 11:44:03
Как cкачать  ·  Как раздать  ·  Правильно оформить  ·  Поднять ратио!  
Показать сообщения:   
Начать новую тему   Ответить на тему    Торрент-трекер NNM-Club -> Зарубежное кино -> Фильмы в оригинале (HD) Часовой пояс: GMT + 3
Страница 1 из 1