Интеллигентный торрент-трекер
canvas not supported
Нас вместе: 4 111 925

Чувство справедливости / Equity (2016) BDRip [H.264/720p] [EN]


 
 
RSS
Начать новую тему   Ответить на тему    Торрент-трекер NNM-Club -> Зарубежное кино -> Фильмы в оригинале (HD)
Автор Сообщение
smaster67 ®
Модератор Видео
Покровитель талантов Uploader 300+
Стаж: 7 лет 5 мес.
Сообщений: 6272
Ratio: 180,692
Поблагодарили: 174297
100%
Чувство справедливости / Equity (2016) BDRip [H.264/720p] [EN]

Производство: США
Жанр: драма

Режиссер: Мира Менон
Актеры: Анна Ганн, Джеймс Пьюрфой, Сара Меган Томас, Алисия Райнер, Крэйг Бирко, Маргарет Колин, Нэйт Корддри, Ник Гелфусс, Кэрри Престон, Сэмюэл Рукин, Трейси Томс, Ли Тергесен

Описание:
История старшего инвестиционного банкира, которой вопреки нависшему над ней финансовому скандалу предстоит раскрыть коррупционные схемы.



Продолжительность: 01:40:21
Качество видео: BDRip 720p
Перевод: Отсутствует
Язык озвучки: Английский

Видео: AVC, 1280x688 (1.85:1), 4725 kbps, 23,976 fps, 0,224 bpp
Аудио: английский / DTS / 5.1 / 48 kHz / 1509 kbps / 24 bit
Код: выделить все
General
Unique ID
Complete name                         Equity.2016.720p.mkv
Format                                   : Matroska
Format version                           : Version 4 / Version 2
File size                                : 4.37 GiB
Duration                                 : 1 h 40 min
Overall bit rate                         : 6 235 kb/s
Encoded date                             : UTC 2016-12-01 06:35:09
Writing application                      : mkvmerge v8.3.0 ('Over the Horizon') 64bit
Writing library                          : libebml v1.3.1 + libmatroska v1.4.2

Video
ID                                       : 1
Format                                   : AVC
Format/Info                              : Advanced Video Codec
Format profile                           : High@L4.1
Format settings, CABAC                   : Yes
Format settings, ReFrames                : 5 frames
Codec ID                                 : V_MPEG4/ISO/AVC
Duration                                 : 1 h 40 min
Bit rate                                 : 4 725 kb/s
Width                                    : 1 280 pixels
Height                                   : 688 pixels
Display aspect ratio                     : 1.85:1
Frame rate mode                          : Constant
Frame rate                               : 23.976 FPS
Color space                              : YUV
Chroma subsampling                       : 4:2:0
Bit depth                                : 8 bits
Scan type                                : Progressive
Bits/(Pixel*Frame)                       : 0.224
Stream size                              : 3.31 GiB (76%)
Writing library                          : x264 core 148 r2705 3f5ed56
Encoding settings                        : cabac=1 / ref=5 / deblock=1:0:0 / analyse=0x3:0x133 / me=umh / subme=7 / psy=1 / psy_rd=1.00:0.00 / mixed_ref=1 / me_range=16 / chroma_me=1 / trellis=1 / 8x8dct=1 / cqm=0 / deadzone=21,11 / fast_pskip=0 / chroma_qp_offset=-2 / threads=12 / lookahead_threads=2 / sliced_threads=0 / nr=0 / decimate=1 / interlaced=0 / bluray_compat=0 / constrained_intra=0 / bframes=3 / b_pyramid=2 / b_adapt=1 / b_bias=0 / direct=1 / weightb=1 / open_gop=0 / weightp=2 / keyint=250 / keyint_min=23 / scenecut=40 / intra_refresh=0 / rc_lookahead=40 / rc=2pass / mbtree=1 / bitrate=4725 / ratetol=1.0 / qcomp=0.60 / qpmin=0 / qpmax=69 / qpstep=4 / cplxblur=20.0 / qblur=0.5 / ip_ratio=1.40 / aq=1:1.00
Language                                 : English
Default                                  : Yes
Forced                                   : No

Audio
ID                                       : 2
Format                                   : DTS
Format/Info                              : Digital Theater Systems
Mode                                     : 16
Format settings, Endianness              : Big
Codec ID                                 : A_DTS
Duration                                 : 1 h 40 min
Bit rate mode                            : Constant
Bit rate                                 : 1 509 kb/s
Channel(s)                               : 6 channels
Channel positions                        : Front: L C R, Side: L R, LFE
Sampling rate                            : 48.0 kHz
Frame rate                               : 93.750 FPS (512 spf)
Bit depth                                : 24 bits
Compression mode                         : Lossy
Stream size                              : 1.06 GiB (24%)
Language                                 : English
Default                                  : Yes
Forced                                   : No

Menu
00:00:00.000                             : en:00:00:00.000
00:10:01.351                             : en:00:10:01.351
00:14:34.874                             : en:00:14:34.874
00:20:07.873                             : en:00:20:07.873
00:26:40.557                             : en:00:26:40.557
00:30:51.683                             : en:00:30:51.683
00:33:30.133                             : en:00:33:30.133
00:38:24.969                             : en:00:38:24.969
00:44:54.567                             : en:00:44:54.567
00:51:25.916                             : en:00:51:25.916
00:56:11.368                             : en:00:56:11.368
01:08:49.250                             : en:01:08:49.250
01:17:55.212                             : en:01:17:55.212
01:20:30.200                             : en:01:20:30.200
01:27:18.900                             : en:01:27:18.900
01:34:16.860                             : en:01:34:16.860

Скриншоты:



Все одноименные релизы в Клубе

Время раздачи: с 13:00 до 23:00
[NNMClub.to]_Equity.2016.720p.mkv.torrent
 Торрент: Серебряная раздча  Зарегистрирован
 
Примагнититься
Free Leech
Зарегистрируйтесь и скачайте торрент!
22 KB
 Зарегистрирован:   01 Дек 2016 12:07:14
 Размер:   4,37 GB  (
 Рейтинг:    (Голосов: 3)
 Поблагодарили:   23
 Проверка:   Оформление проверено модератором 01 Дек 2016 12:07:42
Как cкачать  ·  Как раздать  ·  Правильно оформить  ·  Поднять ратио!  
gapon​enko.​ao​

Online
Стаж: 6 лет 11 мес.
Сообщений: 322
Ratio: 1,124
Поблагодарили: 2159
0.27%
реальный рейтинг IMDB - 5,6
Показать сообщения:   
Начать новую тему   Ответить на тему    Торрент-трекер NNM-Club -> Зарубежное кино -> Фильмы в оригинале (HD) Часовой пояс: GMT + 3
Страница 1 из 1