Классический форум-трекер
canvas not supported
Нас вместе: 4 074 664

Платон (2008) [HQ|H.264|Лицензия] DVDRip


 
 
RSS
Начать новую тему   Ответить на тему    Торрент-трекер NNM-Club -> Отечественное кино -> Отечественные Фильмы (HD*Rip/LQ, DVDRip, SATRip, VHSRip)
Автор Сообщение
s0lAr ®
Стаж: 11 лет 5 мес.
Сообщений: 3404
Ratio: 352,377
Поблагодарили: 334502
Откуда: Из фильма!
pirates.png
Платон (2008) [HQ|H.264|Лицензия] DVDRip
Год выпуска: 2008
Производство: Россия, ПЦ "Парадиз", компания SIGNUS, компания Jackal Productions Ltd
Жанр: Драма, комедия

Описание фильма:
Платон. В московской жизни он как рыба в воде. Успешный, обаятельный, суетливый, он знает всю Москву, Москва знает его. Он делает деньги на основных инстинктах. Контакты, связи, деньги, девочки — у него было все. И все было прекрасно, пока он не встретил: Любовь.

Режиссер: Вартан Акопян
Актеры: Павел Воля, Эвелина Бледанс, Александр Лымарев, Ксения Князева, Владимир Большов, Станислав Бондаренко, Мухтар Гусенгаджиев, Елизавета Лотова, Дмитрий Персин, Алексей Гришин

Продолжительность: 01:33:51
Качество видео: DVDRip



Видео: AVC , 2 369 Kbps, 704 x 368 pixels, 25.000 fps, Bits/(Pixel*Frame) : 0.366
Аудио: DTS , 755 Kbps, 6 channels, 48.0 KHz
Platon (2008).HQ.x264.DTS.Rus.DVDRip.mkv
Format : Matroska
Format version : Version 1
File size : 2.05 GiB
Duration : 1h 33mn
Overall bit rate : 3 125 Kbps
Movie name : -=akaEXtreme=-NNM-Club.info
Encoded date : UTC 2008-12-05 18:30:21
Writing application : mkvmerge v2.3.0 ('Freak U') built on Sep 8 2008 18:32:16
Writing library : libebml v0.7.7 + libmatroska v0.8.1

Video
ID : 1
Format : AVC
Format/Info : Advanced Video Codec
Format profile : High@L3.1
Format settings, CABAC : Yes
Format settings, ReFrames : 16 frames
Format settings, GOP : N=1
Codec ID : V_MPEG4/ISO/AVC
Duration : 1h 33mn
Bit rate : 2 369 Kbps
Width : 704 pixels
Height : 368 pixels
Display aspect ratio : 1.913
Frame rate : 25.000 fps
Color space : YUV
Chroma subsampling : 4:2:0
Bit depth : 8 bits
Scan type : Progressive
Bits/(Pixel*Frame) : 0.366
Stream size : 1.51 GiB (74%)
Writing library : x264 core 65 r1046M 71d34b4
Encoding settings : cabac=1 / ref=16 / deblock=1:-4:-4 / analyse=0x3:0x133 / me=hex / subme=9 / psy_rd=2.0:0.0 / mixed_ref=0 / me_range=16 / chroma_me=1 / trellis=1 / 8x8dct=1 / cqm=0 / deadzone=21,11 / chroma_qp_offset=-2 / threads=3 / nr=0 / decimate=1 / mbaff=0 / bframes=3 / b_pyramid=1 / b_adapt=2 / b_bias=0 / direct=2 / wpredb=1 / keyint=250 / keyint_min=25 / scenecut=40(pre) / rc=2pass / bitrate=2369 / ratetol=1.0 / qcomp=0.60 / qpmin=10 / qpmax=45 / qpstep=4 / cplxblur=15.0 / qblur=1.5 / ip_ratio=1.40 / pb_ratio=1.30 / aq=1:1.00
Language : English
Default : Yes
Forced : No

Audio
ID : 2
Format : DTS
Format/Info : Digital Theater Systems
Codec ID : A_DTS
Duration : 1h 33mn
Bit rate mode : Constant
Bit rate : 755 Kbps
Channel(s) : 6 channels
Channel positions : Front: L C R, Side: L R, LFE
Sampling rate : 48.0 KHz
Bit depth : 24 bits
Compression mode : Lossy
Stream size : 507 MiB (24%)
Default : Yes
Forced : No
Скриншоты:


Реставрация релиза: smaster67

Все релизы фильма на NNM-club
[NNM-Club.info] Platon (2008).HQ.x264.DTS.Rus.DVDRip.mkv.torrent
 Торрент: Платиновая раздача  Зарегистрирован
 
Скачать


 Зарегистрирован:   05 Дек 2008 21:55:13
 Размер:   2,05 GB  (
 Рейтинг:   4,3 (Голосов: 88)
 Поблагодарили:   288
 Проверка:   Оформление проверено модератором 08 Дек 2008 00:03:20
Как cкачать  ·  Как раздать  ·  Правильно оформить  ·  Поднять ратио!  
iRX
 
Стаж: 12 лет 6 мес.
Сообщений: 1021
Ratio: 6,953
100%
Откуда: Москва
russia.gif
А что со скоростью?
s0lAr ®
Стаж: 11 лет 5 мес.
Сообщений: 3404
Ratio: 352,377
Поблагодарили: 334502
Откуда: Из фильма!
pirates.png
iRX
в продаже
iRX
 
Стаж: 12 лет 6 мес.
Сообщений: 1021
Ratio: 6,953
100%
Откуда: Москва
russia.gif
Спасибо за фильм! Очень понравился!
Y0!ZiK
Стаж: 11 лет 5 мес.
Сообщений: 206
Ratio: 3,229
Поблагодарили: 31
100%
Откуда: Челябинск
Не ожидал, что получится неплохой, даже совсем неплохой фильм
Evkliptik
Стаж: 8 лет 10 мес.
Сообщений: 106
Ratio: 1,532
100%
Откуда: Минеральные воды
russia.gif
качаю спасибо)
смотрел давно, вот решил ещё раз пересмотреть и кинуть в коллекцию)
smaster67
Модератор Видео
Покровитель талантов Uploader 300+
Стаж: 10 лет
Сообщений: 7119
Ratio: 226,01
Поблагодарили: 214788
100%
proEtt
Только чтение
Стаж: 6 лет
Сообщений: 342
Ratio: 15,965
Раздал: 4,838 TB
100%
Откуда: Забулдыгово
philippines.gif
не заметил ни одного нормального актера. Рейтинг натянутый...
slesarenok2
Стаж: 4 года 2 мес.
Сообщений: 5
Ratio: 7,933
1.17%
ussr.gif
Для Павла очень удачная роль. Лучше бы он в таком жанре снимался, а не в линейке " самый лучший фильм".
Показать сообщения:   
Начать новую тему   Ответить на тему    Торрент-трекер NNM-Club -> Отечественное кино -> Отечественные Фильмы (HD*Rip/LQ, DVDRip, SATRip, VHSRip) Часовой пояс: GMT + 3
Страница 1 из 1