Интеллигентный торрент-трекер
canvas not supported
Нас вместе: 4 114 227

Элиминаторы / Eliminators (2016) BDRip [H.264/1080p] [EN]


 
 
RSS
Начать новую тему   Ответить на тему    Торрент-трекер NNM-Club -> Зарубежное кино -> Фильмы в оригинале (HD)
Автор Сообщение
smaster67 ®
Модератор Видео
Покровитель талантов Uploader 300+
Стаж: 7 лет 5 мес.
Сообщений: 6275
Ratio: 180,943
Поблагодарили: 174470
100%
Элиминаторы / Eliminators (2016) BDRip [H.264/1080p] [EN]

Производство: США, Великобритания
Жанр: боевик

Режиссер: Джеймс Нанн
Актеры: Скотт Эдкинс, Стю Беннет, Даниэль Кальтаджироне, Джеймс Космо, Мем Ферда, Ти Глейсер, Оливия Мейс, Стивен Маркус, Брюс Джонсон, Шон Кронин, Аки Котабе, Ник Томас-Уэбстер

Описание:
Картина расскажет о бывшем американском федеральном агенте, который вынужден отказаться от программы по защите свидетелей и выйти из подполья, чтобы защитить свою дочь от самого опасного убийцы Европы.



Продолжительность: 01:34:28
Качество видео: BDRip
Перевод: Отсутствует
Язык озвучки: Английский

Видео: AVC, 1920x1080 (16:9), 10086 kbps, 23,976 fps, 0,203 bpp
Аудио: английский / DTS / 5.1 / 48 kHz / 1509 kbps / 24 bit
Код: выделить все
General
Unique ID                                Eliminators.2016.1080p.mkv
Format                                   : Matroska
Format version                           : Version 4 / Version 2
File size                                : 7.65 GiB
Duration                                 : 1 h 34 min
Overall bit rate                         : 11.6 Mb/s
Encoded date                             : UTC 2016-12-02 00:15:37
Writing application                      : mkvmerge v8.3.0 ('Over the Horizon') 64bit
Writing library                          : libebml v1.3.1 + libmatroska v1.4.2

Video
ID                                       : 1
Format                                   : AVC
Format/Info                              : Advanced Video Codec
Format profile                           : High@L4.1
Format settings, CABAC                   : Yes
Format settings, ReFrames                : 4 frames
Codec ID                                 : V_MPEG4/ISO/AVC
Duration                                 : 1 h 34 min
Bit rate                                 : 10.1 Mb/s
Width                                    : 1 920 pixels
Height                                   : 1 080 pixels
Display aspect ratio                     : 16:9
Frame rate mode                          : Constant
Frame rate                               : 23.976 FPS
Color space                              : YUV
Chroma subsampling                       : 4:2:0
Bit depth                                : 8 bits
Scan type                                : Progressive
Bits/(Pixel*Frame)                       : 0.203
Stream size                              : 6.65 GiB (87%)
Writing library                          : x264 core 148 r2705 3f5ed56
Encoding settings                        : cabac=1 / ref=4 / deblock=1:0:0 / analyse=0x3:0x133 / me=umh / subme=7 / psy=1 / psy_rd=1.00:0.00 / mixed_ref=1 / me_range=16 / chroma_me=1 / trellis=1 / 8x8dct=1 / cqm=0 / deadzone=21,11 / fast_pskip=0 / chroma_qp_offset=-2 / threads=34 / lookahead_threads=5 / sliced_threads=0 / nr=0 / decimate=1 / interlaced=0 / bluray_compat=0 / constrained_intra=0 / bframes=3 / b_pyramid=2 / b_adapt=1 / b_bias=0 / direct=1 / weightb=1 / open_gop=0 / weightp=2 / keyint=250 / keyint_min=23 / scenecut=40 / intra_refresh=0 / rc_lookahead=40 / rc=2pass / mbtree=1 / bitrate=10086 / ratetol=1.0 / qcomp=0.60 / qpmin=0 / qpmax=69 / qpstep=4 / cplxblur=20.0 / qblur=0.5 / ip_ratio=1.40 / aq=1:1.00
Language                                 : English
Default                                  : Yes
Forced                                   : No

Audio
ID                                       : 2
Format                                   : DTS
Format/Info                              : Digital Theater Systems
Mode                                     : 16
Format settings, Endianness              : Big
Codec ID                                 : A_DTS
Duration                                 : 1 h 34 min
Bit rate mode                            : Constant
Bit rate                                 : 1 509 kb/s
Channel(s)                               : 6 channels
Channel positions                        : Front: L C R, Side: L R, LFE
Sampling rate                            : 48.0 kHz
Frame rate                               : 93.750 FPS (512 spf)
Bit depth                                : 24 bits
Compression mode                         : Lossy
Stream size                              : 1 020 MiB (13%)
Language                                 : English
Default                                  : Yes
Forced                                   : No

Menu
00:00:00.000                             : en:00:00:00.000
00:06:17.335                             : en:00:06:17.335
00:12:13.316                             : en:00:12:13.316
00:16:29.363                             : en:00:16:29.363
00:20:14.964                             : en:00:20:14.964
00:23:58.562                             : en:00:23:58.562
00:27:31.900                             : en:00:27:31.900
00:33:50.904                             : en:00:33:50.904
00:37:51.227                             : en:00:37:51.227
00:43:29.440                             : en:00:43:29.440
00:47:37.480                             : en:00:47:37.480
00:50:50.214                             : en:00:50:50.214
00:54:28.182                             : en:00:54:28.182
00:58:27.254                             : en:00:58:27.254
01:03:18.837                             : en:01:03:18.837
01:07:50.275                             : en:01:07:50.275
01:13:39.957                             : en:01:13:39.957
01:19:45.864                             : en:01:19:45.864
01:25:54.733                             : en:01:25:54.733
01:30:25.420                             : en:01:30:25.420

Скриншоты:



Все одноименные релизы в Клубе

Время раздачи: с 13:00 до 23:00
[NNMClub.to]_Eliminators.2016.1080p.mkv.torrent
 Торрент: Золотая раздача  Зарегистрирован
 
Примагнититься
Free Leech
Зарегистрируйтесь и скачайте торрент!
38,4 KB
 Зарегистрирован:   02 Дек 2016 09:38:20
 Размер:   7,65 GB  (
 Рейтинг:    (Голосов: 4)
 Поблагодарили:   27
 Проверка:   Оформление проверено модератором 02 Дек 2016 09:39:30
Как cкачать  ·  Как раздать  ·  Правильно оформить  ·  Поднять ратио!  
Показать сообщения:   
Начать новую тему   Ответить на тему    Торрент-трекер NNM-Club -> Зарубежное кино -> Фильмы в оригинале (HD) Часовой пояс: GMT + 3
Страница 1 из 1