Интеллигентный торрент-трекер
canvas not supported
Нас вместе: 4 100 829

Олег Накрошаев | Секреты получения насыщенных снимков (2016) PCRec [H.264]


 
 
RSS
Начать новую тему   Ответить на тему    Торрент-трекер NNM-Club -> Обучающие видеоматериалы -> Фотография
Автор Сообщение
Trovel ®
Стаж: 5 лет 9 мес.
Сообщений: 2811
Ratio: 36,788
Поблагодарили: 723767
100%
Откуда: Уфа
nnm-club.gif
Олег Накрошаев | Секреты получения насыщенных снимков (2016) PCRec [H.264]
Автор (режиссер): Олег Накрошаев
Жанр: Photoshop, Обработка фотографий

Описание:
Видеокурс "Секреты получения насыщенных снимков" рассказывает о том, как создать такую маску насыщенности, как её применить к изображению, как избирательно поднять насыщенность определенных участков картинки и рассмотрит множество способов поднятия насыщенности фотографии.

Продолжительность: 01:28:05
Качество видео: PCRec

Видео: AVC, 1280x720, ~419 Kbps
Аудио: AAC, 93.6 Kbps, 48.0 KHz
  • Урок 1. Определение насыщенности и создание маски цветовой насыщенности.
  • Урок 2. Использование маски цветовой насыщенности (пример 1).
  • Урок 3. Использование маски цветовой насыщенности (пример 2).
  • Урок 4. Использование маски цветовой насыщенности (пример 3).
  • Урок 5. Восстановление перенасыщенных ("выбитых") участков фотографии (пример 1).
  • Урок 6. Восстановление перенасыщенных ("выбитых") участков фотографии (пример 2).
  • Урок 7. Использование маски насыщенности в цветовом пространстве HSL/HSB (версия photoshop CC).
  • Урок 8. Загрузка дополнительного фильтра HSL/HSB в версию Photoshop CS6.
  • Урок 9. Создание маски насыщенности с помощью режимов наложения (пример 1).
  • Урок 10. Создание маски насыщенности с помощью режимов наложения (пример 2).
  • Урок 11. Создание маски насыщенности с помощью операции.
  • Урок 12. Использование команд "Цветовой тон/Насыщенность" и "Выборочная коррекция цвета".
  • Урок 13. Использование команды "Микширование каналов" и режимов наложения слоев.
  • Урок 14. Три способа увеличения насыщенности в режиме Lab.
  • Урок 15. Получение яркой (лубочной) фотографии.
Код: выделить все
General
Format                         : MPEG-4
Format profile                 : Base Media / Version 2
Codec ID                       : mp42
File size                      : 20.0 MiB
Duration                       : 6mn 28s
Overall bit rate               : 431 Kbps
Encoded date                   : UTC 2016-10-01 06:10:10
Tagged date                    : UTC 2016-10-01 06:10:10

Video
ID                             : 1
Format                         : AVC
Format/Info                    : Advanced Video Codec
Format profile                 : High@L3.1
Format settings, CABAC         : Yes
Format settings, ReFrames      : 4 frames
Format settings, GOP           : M=1, N=75
Codec ID                       : avc1
Codec ID/Info                  : Advanced Video Coding
Duration                       : 6mn 28s
Source duration                : 6mn 28s
Bit rate                       : 336 Kbps
Width                          : 1 280 pixels
Height                         : 720 pixels
Display aspect ratio           : 16:9
Frame rate mode                : Constant
Frame rate                     : 15.000 fps
Color space                    : YUV
Chroma subsampling             : 4:2:0
Bit depth                      : 8 bits
Scan type                      : Progressive
Bits/(Pixel*Frame)             : 0.024
Stream size                    : 15.5 MiB (78%)
Source stream size             : 15.5 MiB (78%)
Language                       : English
Encoded date                   : UTC 2016-10-01 06:10:10
Tagged date                    : UTC 2016-10-01 06:10:10
Color range                    : Limited
Color primaries                : BT.709
Transfer characteristics       : BT.709
Matrix coefficients            : BT.709
mdhd_Duration                  : 388024

Audio
ID                             : 2
Format                         : AAC
Format/Info                    : Advanced Audio Codec
Format profile                 : LC
Codec ID                       : 40
Duration                       : 6mn 28s
Source duration                : 6mn 28s
Bit rate mode                  : Constant
Bit rate                       : 93.6 Kbps
Channel(s)                     : 2 channels
Channel positions              : Front: L R
Sampling rate                  : 44.1 KHz
Compression mode               : Lossy
Stream size                    : 4.33 MiB (22%)
Source stream size             : 4.33 MiB (22%)
Language                       : English
Encoded date                   : UTC 2016-10-01 06:10:10
Tagged date                    : UTC 2016-10-01 06:10:10
mdhd_Duration                  : 388039
Скриншоты:

Время раздачи: 24/7 (до появления первых 3-5 скачавших)
[NNMClub.to]_Sekretyi polucheniya nasyishchennyih snimkov.torrent
 Торрент:   Зарегистрирован
 
Примагнититься
Free Leech
Зарегистрируйтесь и скачайте торрент!
19,3 KB
 Зарегистрирован:   02 Дек 2016 10:05:07
 Размер:   320 MB  (
 Рейтинг:   4,8 (Голосов: 10)
 Поблагодарили:   55
 Проверка:   Внимание! Оформление не проверено модератором!
Как cкачать  ·  Как раздать  ·  Правильно оформить  ·  Поднять ратио!  
Показать сообщения:   
Начать новую тему   Ответить на тему    Торрент-трекер NNM-Club -> Обучающие видеоматериалы -> Фотография Часовой пояс: GMT + 3
Страница 1 из 1