Интеллигентный торрент-трекер
canvas not supported
Нас вместе: 4 329 691

Нетология | JavaScript-разработка. Создаем интерактивные веб-страницы (2016) PCRec


 
 
RSS
Начать новую тему   Ответить на тему    Торрент-трекер NNM-Club -> Обучающие видеоматериалы -> Компьютеры
Автор Сообщение
Trovel ®
Стаж: 6 лет 5 мес.
Сообщений: 3075
Ratio: 41,188
Поблагодарили: 839592
100%
Нетология | JavaScript-разработка. Создаем интерактивные веб-страницы (2016) PCRec
Автор (режиссер): Нетология
Жанр: Веб-разработка, JavaScript

Описание:
На курсе «javascript-разработка: создаем интерактивные веб-страницы» вы научитесь пользоваться всеми инструментами, используемыми front-end разработчиками.

После завершения обучения вы будете максимально готовы к работе над реальными проектами, а также будете уметь работать с jQuery, Bootstrap, LESS, и многое другое.

Продолжительность: 31:00:12
Качество видео: PCRec

Видео: AVC, 1280x720, ~462 Kbps
Аудио: AAC, 235 Kbps, 48.0 KHz
  • Командная разработка
    Система контроля версий Git, сервисы GitHub и BitBucket, совместная работа с общим репозиторием, форки, подготовка релиза, особенности HTML5, кросс-браузерность.

  • Основы javascript
    Операторы и выражения, переменные, условные операторы, циклы, конструкция switch, методы и свойства, строки, объекты, массивы, функции, рекурсия и стек, замыкания и области видимости переменных.

  • Объекты в javascript
    Функциональные выражения и замыкания, методы объектов, this, new, геттеры/сеттеры, call/apply/bind, конструктор, прототип, наследование, основы ООП, прототипы.

  • Расширенные возможности HTML и javascript
    Объектная модель браузера, объектная модель документа, события, технология AJAX, объект XMLHttpRequest, JSON, XML, кросс-доменные запросы, JSONP.

  • Расширенные возможности CSS
    Анимация с помощью CSS, градиенты и трансформации, адаптивная верстка, программируемый язык стилей SASS, автоматизация задач с помощью менеджера зависимостей NPM.

  • Обзор библиотек и фреймворков
    Библиотека jQuery, фреймворк Bootstrap, фреймворк AngularJS.
Код: выделить все
General
Format                         : MPEG-4
Format profile                 : Base Media / Version 2
Codec ID                       : mp42
File size                      : 619 MiB
Duration                       : 1h 54mn
Overall bit rate mode          : Variable
Overall bit rate               : 755 Kbps

Video
ID                             : 1
Format                         : AVC
Format/Info                    : Advanced Video Codec
Format profile                 : High@L3.2
Format settings, CABAC         : Yes
Format settings, ReFrames      : 5 frames
Codec ID                       : avc1
Codec ID/Info                  : Advanced Video Coding
Duration                       : 1h 54mn
Source duration                : 1h 54mn
Bit rate                       : 481 Kbps
Width                          : 1 280 pixels
Height                         : 720 pixels
Display aspect ratio           : 16:9
Frame rate mode                : Constant
Frame rate                     : 20.000 fps
Color space                    : YUV
Chroma subsampling             : 4:2:0
Bit depth                      : 8 bits
Scan type                      : Progressive
Bits/(Pixel*Frame)             : 0.026
Stream size                    : 394 MiB (64%)
Source stream size             : 421 MiB (68%)
Language                       : English
Color primaries                : BT.709
Transfer characteristics       : BT.709
Matrix coefficients            : BT.709
mdhd_Duration                  : 6876800

Audio
ID                             : 2
Format                         : AAC
Format/Info                    : Advanced Audio Codec
Format profile                 : LC
Codec ID                       : 40
Duration                       : 1h 54mn
Source duration                : 1h 54mn
Bit rate mode                  : Variable
Bit rate                       : 235 Kbps
Channel(s)                     : 2 channels
Channel positions              : Front: L R
Sampling rate                  : 48.0 KHz
Compression mode               : Lossy
Stream size                    : 193 MiB (31%)
Source stream size             : 193 MiB (31%)
Language                       : English
mdhd_Duration                  : 6876779
Скриншоты:

Время раздачи: 24/7 (до появления первых 3-5 скачавших)
[NNMClub.to]_JavaScript-razrabotka. Sozdaem interaktivnyie veb-stranitsyi.torrent
 Торрент: Платиновая раздача  Зарегистрирован
 
Примагнититься

Скачать
 Зарегистрирован:   02 Дек 2016 21:04:17
 Размер:   10,1 GB  (
 Рейтинг:   4,7 (Голосов: 103)
 Поблагодарили:   388
 Проверка:   Оформление проверено модератором 05 Дек 2016 13:51:05
Как cкачать  ·  Как раздать  ·  Правильно оформить  ·  Поднять ратио!  

_________________
INACTIVATED
Bogda​n96su​p​
Стаж: 6 лет
Сообщений: 18
Ratio: 1,795
Поблагодарили: 105
13.48%
Откуда: Seattle
usa.gif
Ого, спасибо!

_________________
dexgun2
Стаж: 1 год 3 мес.
Сообщений: 118
Ratio: 0,735
0.35%
Это больше основы javascript нежели разработка, да и потом всё уже разработано в фреймворке jQuery и библиотеках, надо только знать как этим пользоваться.
IGS_63
Стаж: 6 лет 10 мес.
Сообщений: 88
Ratio: 20,07
99.28%
ussr.gif
Ну основы тоже нужны ведь :подмигивание: - автору раздачи спасибо! :клево:
Показать сообщения:   
Начать новую тему   Ответить на тему    Торрент-трекер NNM-Club -> Обучающие видеоматериалы -> Компьютеры Часовой пояс: GMT + 3
Страница 1 из 1