Интеллигентный торрент-трекер
canvas not supported
Нас вместе: 4 345 360

Морган / Morgan (2016) BDRip [H.264/720p] [EN / EN Sub]


 
 
RSS
Начать новую тему   Ответить на тему    Торрент-трекер NNM-Club -> Зарубежное кино -> Фильмы в оригинале (HD)
Автор Сообщение
smaster67 ®
Модератор Видео
Покровитель талантов Uploader 300+
Стаж: 7 лет 11 мес.
Сообщений: 6650
Ratio: 200,784
Поблагодарили: 193263
100%
Морган / Morgan (2016) BDRip [H.264/720p] [EN / EN Sub]

Производство: США
Жанр: ужасы, фантастика, триллер, детектив

Режиссер: Люк Скотт
Актеры: Кейт Мара, Аня Тейлор-Джой, Роуз Лесли, Майкл Йар, Тоби Джонс, Крис Салливан, Бойд Холбрук, Винетт Робинсон, Мишель Йео, Брайан Кокс, Дженнифер Джейсон Ли, Пол Джаматти

Описание:
Сотрудница по устранению аварий отправляется в отдаленный секретный филиал, где должна расследовать и оценить потери от происшествия. На месте она узнает, что случившееся было вызвано, казалось бы, невинным «человеком», чьё существование само по себе является тайной.



Продолжительность: 01:31:52
Качество видео: BDRip
Перевод: Отсутствует
Язык озвучки: Английский
Язык субтитров: английский
Вид субтитров: Вшитые, форсированные

Видео: AVC, 1280x536 (2.40:1), 5300 kbps, 23,976 fps, 0,322 bpp
Аудио: английский / DTS / 5.1 / 48 kHz / 1509 kbps / 24 bit
Код: выделить все
General
Unique ID                                Morgan.2016.720p.mkv
Format                                   : Matroska
Format version                           : Version 4 / Version 2
File size                                : 4.37 GiB
Duration                                 : 1 h 31 min
Overall bit rate                         : 6 808 kb/s
Encoded date                             : UTC 2016-12-02 22:04:52
Writing application                      : mkvmerge v8.3.0 ('Over the Horizon') 64bit
Writing library                          : libebml v1.3.1 + libmatroska v1.4.2

Video
ID                                       : 1
Format                                   : AVC
Format/Info                              : Advanced Video Codec
Format profile                           : High@L4.1
Format settings, CABAC                   : Yes
Format settings, ReFrames                : 5 frames
Codec ID                                 : V_MPEG4/ISO/AVC
Duration                                 : 1 h 31 min
Bit rate                                 : 5 300 kb/s
Width                                    : 1 280 pixels
Height                                   : 536 pixels
Display aspect ratio                     : 2.40:1
Frame rate mode                          : Constant
Frame rate                               : 23.976 FPS
Color space                              : YUV
Chroma subsampling                       : 4:2:0
Bit depth                                : 8 bits
Scan type                                : Progressive
Bits/(Pixel*Frame)                       : 0.322
Stream size                              : 3.40 GiB (78%)
Writing library                          : x264 core 148 r2705 3f5ed56
Encoding settings                        : cabac=1 / ref=5 / deblock=1:0:0 / analyse=0x3:0x133 / me=umh / subme=7 / psy=1 / psy_rd=1.00:0.00 / mixed_ref=1 / me_range=16 / chroma_me=1 / trellis=1 / 8x8dct=1 / cqm=0 / deadzone=21,11 / fast_pskip=0 / chroma_qp_offset=-2 / threads=12 / lookahead_threads=2 / sliced_threads=0 / nr=0 / decimate=1 / interlaced=0 / bluray_compat=0 / constrained_intra=0 / bframes=3 / b_pyramid=2 / b_adapt=1 / b_bias=0 / direct=1 / weightb=1 / open_gop=0 / weightp=2 / keyint=250 / keyint_min=23 / scenecut=40 / intra_refresh=0 / rc_lookahead=40 / rc=2pass / mbtree=1 / bitrate=5300 / ratetol=1.0 / qcomp=0.60 / qpmin=0 / qpmax=69 / qpstep=4 / cplxblur=20.0 / qblur=0.5 / ip_ratio=1.40 / aq=1:1.00
Language                                 : English
Default                                  : Yes
Forced                                   : No

Audio
ID                                       : 2
Format                                   : DTS
Format/Info                              : Digital Theater Systems
Mode                                     : 16
Format settings, Endianness              : Big
Codec ID                                 : A_DTS
Duration                                 : 1 h 31 min
Bit rate mode                            : Constant
Bit rate                                 : 1 509 kb/s
Channel(s)                               : 6 channels
Channel positions                        : Front: L C R, Side: L R, LFE
Sampling rate                            : 48.0 kHz
Frame rate                               : 93.750 FPS (512 spf)
Bit depth                                : 24 bits
Compression mode                         : Lossy
Stream size                              : 992 MiB (22%)
Language                                 : English
Default                                  : Yes
Forced                                   : No

Text
ID                                       : 3
Format                                   : UTF-8
Codec ID                                 : S_TEXT/UTF8
Codec ID/Info                            : UTF-8 Plain Text
Duration                                 : 42 min
Bit rate                                 : 1 b/s
Count of elements                        : 14
Stream size                              : 372 Bytes (0%)
Title                                    : English-Forced
Language                                 : English
Default                                  : Yes
Forced                                   : Yes

Menu
00:00:00.000                             : en:00:00:00.000
00:03:43.098                             : en:00:03:43.098
00:07:22.400                             : en:00:07:22.400
00:11:41.784                             : en:00:11:41.784
00:16:04.338                             : en:00:16:04.338
00:20:30.271                             : en:00:20:30.271
00:25:36.326                             : en:00:25:36.326
00:28:45.515                             : en:00:28:45.515
00:34:20.267                             : en:00:34:20.267
00:37:17.861                             : en:00:37:17.861
00:40:46.110                             : en:00:40:46.110
00:43:47.124                             : en:00:43:47.124
00:48:14.225                             : en:00:48:14.225
00:51:28.752                             : en:00:51:28.752
00:54:45.991                             : en:00:54:45.991
00:59:51.046                             : en:00:59:51.046
01:03:44.404                             : en:01:03:44.404
01:08:01.619                             : en:01:08:01.619
01:11:43.758                             : en:01:11:43.758
01:13:46.422                             : en:01:13:46.422
01:17:03.702                             : en:01:17:03.702
01:20:01.672                             : en:01:20:01.672
01:22:32.531                             : en:01:22:32.531
01:25:10.939                             : en:01:25:10.939

Скриншоты:



Все одноименные релизы в Клубе

Время раздачи: с 13:00 до 23:00
[NNMClub.to]_Morgan.2016.720p.mkv.torrent
 Торрент: Серебряная раздча  Зарегистрирован
 
Примагнититься
Free Leech
Зарегистрируйтесь и скачайте торрент!
22 KB
 Зарегистрирован:   03 Дек 2016 02:26:27
 Размер:   4,37 GB  (
 Рейтинг:    (Голосов: 5)
 Поблагодарили:   35
 Проверка:   Оформление проверено модератором 03 Дек 2016 02:27:27
Как cкачать  ·  Как раздать  ·  Правильно оформить  ·  Поднять ратио!  
Загрузка...
Показать сообщения:   
Начать новую тему   Ответить на тему    Торрент-трекер NNM-Club -> Зарубежное кино -> Фильмы в оригинале (HD) Часовой пояс: GMT + 3
Страница 1 из 1