Интеллигентный торрент-трекер
canvas not supported
Нас вместе: 4 332 137

Чудо на Гудзоне / Sully (2016) BDRip [H.264/720p] [Line]


 
 
RSS
Начать новую тему   Ответить на тему    Торрент-трекер NNM-Club -> Архив торрентов -> Архив Видео
Автор Сообщение
karfa​gen19​75​ ®
Стаж: 6 лет 7 мес.
Сообщений: 1346
Ratio: 43,814
Раздал: 25,75 TB
Поблагодарили: 71635
100%
Откуда: планета Земля
russia.gif
Чудо на Гудзоне / Sully (2016) BDRip [H.264/720p]

Производство: США
Жанр: Драма, Биография

Режиссер: Клинт Иствуд
Актеры: Том Хэнкс, Аарон Экхарт, Валери Махаффей, Делфи Хэррингтон, Майк О’Мэлли, Джейми Шеридан, Анна Ганн, Холт МакКэллани, Ахмед Хуссэйн, Лора Линни, Лаура Ланди Уил, Онира Саттервайт

Описание:
Произошедшее 15 января 2009 года назовут «Чудом на Гудзоне». В тот день капитан рейса 1549 Чесли Салленбергер совершил аварийную посадку самолета A320 на холодные воды реки Гудзон в Нью-Йорке. При этом никто из находившихся на борту 155 человек не пострадал. Но, несмотря на все почести со стороны общественности и СМИ, было начато расследование, которое угрожало профессиональной репутации и многолетней карьере капитана Салли.


Возраст: 16+ (зрителям, достигшим 16 лет)
Рейтинг MPAA: PG-13 (детям до 13 лет просмотр нежелателен)
Дата мировой премьеры: 2 сентября 2016
Дата российской премьеры: 8 сентября 2016, «Каро-Премьер»

Продолжительность: 01:35:50
Качество видео: BDRip 720p
Перевод: Дублированный (Чистый звук)
Язык субтитров: Английский
Вид субтитров: Вшитые отключаемые
Реклама: Отсутствует

Видео: AVC, 1280x536 (2.35:1), 23.976 fps, 5 887 Kbps (0.358 bit/pixel)
Аудио #1: AC-3, 48.0 KHz, 2 ch, 192 Kbps, CBR (Russian)
Аудио #2: AC-3, 48.0 KHz, 6 ch, 640 Kbps, CBR (English)
Код: выделить все

General
Complete name               : D:\Sully.2016.720p.BluRay.x264.NNMCLUB.mkv
Format                      : Matroska
Format version              : Version 4 / Version 2
File size                   : 4.50 GiB
Duration                    : 1 h 35 min
Overall bit rate            : 6 726 kb/s
Encoded date                : UTC 2016-12-03 06:55:51
Writing application         : mkvmerge v9.6.0 ('Slave To Your Mind') 64bit
Writing library             : libebml v1.3.4 + libmatroska v1.4.5

Video
ID                          : 1
Format                      : AVC
Format/Info                 : Advanced Video Codec
Format profile              : High@L4.1
Format settings, CABAC      : Yes
Format settings, ReFrames   : 5 frames
Codec ID                    : V_MPEG4/ISO/AVC
Duration                    : 1 h 35 min
Bit rate                    : 5 887 kb/s
Width                       : 1 280 pixels
Height                      : 536 pixels
Display aspect ratio        : 2.40:1
Frame rate mode             : Constant
Frame rate                  : 23.976 FPS
Color space                 : YUV
Chroma subsampling          : 4:2:0
Bit depth                   : 8 bits
Scan type                   : Progressive
Bits/(Pixel*Frame)          : 0.358
Stream size                 : 3.94 GiB (87%)
Title                       : NNMCLUB
Writing library             : x264 core 148 r2705 3f5ed56
Encoding settings           : cabac=1 / ref=5 / deblock=1:0:0 / analyse=0x3:0x133 / me=umh / subme=7 / psy=1 / psy_rd=1.00:0.00 / mixed_ref=1 / me_range=16 / chroma_me=1 / trellis=1 / 8x8dct=1 / cqm=0 / deadzone=21,11 / fast_pskip=0 / chroma_qp_offset=-2 / threads=17 / lookahead_threads=2 / sliced_threads=0 / nr=0 / decimate=1 / interlaced=0 / bluray_compat=0 / constrained_intra=0 / bframes=3 / b_pyramid=2 / b_adapt=1 / b_bias=0 / direct=1 / weightb=1 / open_gop=0 / weightp=2 / keyint=250 / keyint_min=23 / scenecut=40 / intra_refresh=0 / rc_lookahead=40 / rc=2pass / mbtree=1 / bitrate=5887 / ratetol=1.0 / qcomp=0.60 / qpmin=0 / qpmax=69 / qpstep=4 / cplxblur=20.0 / qblur=0.5 / ip_ratio=1.40 / aq=1:1.00
Language                    : English
Default                     : Yes
Forced                      : No

Audio #1
ID                          : 2
Format                      : AC-3
Format/Info                 : Audio Coding 3
Mode extension              : CM (complete main)
Format settings, Endianness : Big
Codec ID                    : A_AC3
Duration                    : 1 h 35 min
Bit rate mode               : Constant
Bit rate                    : 192 kb/s
Channel(s)                  : 2 channels
Channel positions           : Front: L R
Sampling rate               : 48.0 kHz
Frame rate                  : 31.250 FPS (1536 spf)
Compression mode            : Lossy
Stream size                 : 132 MiB (3%)
Title                       : LINE
Language                    : Russian
Default                     : Yes
Forced                      : No

Audio #2
ID                          : 3
Format                      : AC-3
Format/Info                 : Audio Coding 3
Mode extension              : CM (complete main)
Format settings, Endianness : Big
Codec ID                    : A_AC3
Duration                    : 1 h 35 min
Bit rate mode               : Constant
Bit rate                    : 640 kb/s
Channel(s)                  : 6 channels
Channel positions           : Front: L C R, Side: L R, LFE
Sampling rate               : 48.0 kHz
Frame rate                  : 31.250 FPS (1536 spf)
Compression mode            : Lossy
Stream size                 : 439 MiB (10%)
Language                    : English
Default                     : No
Forced                      : No

Text
ID                          : 4
Format                      : VobSub
Muxing mode                 : zlib
Codec ID                    : S_VOBSUB
Codec ID/Info               : Picture based subtitle format used on DVDs
Duration                    : 1 h 35 min
Bit rate                    : 7 411 b/s
Count of elements           : 1642
Stream size                 : 5.08 MiB (0%)
Language                    : English
Default                     : No
Forced                      : No
Скриншоты:

Все одноименные релизы в Клубе

Время раздачи: 24/7
Sully.2016.720p.BluRay.x264.NNMCLUB.mkv.torrent
 Торрент: Платиновая раздача  Зарегистрирован
 
Примагнититься

Скачать
 Зарегистрирован:   03 Дек 2016 10:23:17
 Размер:   4,5 GB  (
 Рейтинг:   4,7 (Голосов: 98)
 Поблагодарили:   532
 Проверка:   Оформление проверено модератором 03 Дек 2016 10:29:19
Как cкачать  ·  Как раздать  ·  Правильно оформить  ·  Поднять ратио!  
SoulEater
Модератор Музыки
RG Music
Реставратор
 
Стаж: 3 года 9 мес.
Сообщений: 2534
Ratio: 25,074
Раздал: 2,516 TB
Поблагодарили: 18995
100%
nnm-club.gif
Том Хэнкс - превосходный актер, все фильмы с ним обречены на успех (за некоторыми исключениями, конечно же).
codehasard
Стаж: 3 года 4 мес.
Сообщений: 8
Ratio: 2,798
90.78%
Жду с нетерпением релиз на 1080р :выпивают:
GluGi
Стаж: 3 года 7 мес.
Сообщений: 10
Ratio: 7,164
50.13%
Когда 1080р есть слухи?
karfa​gen19​75​ ®
Стаж: 6 лет 7 мес.
Сообщений: 1346
Ratio: 43,814
Раздал: 25,75 TB
Поблагодарили: 71635
100%
Откуда: планета Земля
russia.gif
codehasard писал(а): Перейти к сообщению
Жду с нетерпением релиз на 1080р

GluGi писал(а): Перейти к сообщению
Когда 1080р есть слухи?

Слухи...хм
Когда на "сцене" появится тогда и будет, ребята терпение...
semenich2
Стаж: 6 лет 8 мес.
Сообщений: 619
Ratio: 2,993
7.48%
жена Хайзенберга-смотрим...
Alexman121
Uploaders 300+
Модератор TV/Спорт RG NNM-Club DocTV
 
Стаж: 7 лет
Сообщений: 4148
Ratio: 73,682
Раздал: 431,4 TB
Поблагодарили: 41936
100%
Откуда: Крым - это Россия ;)
russia.gif
Цитата:
HTTP Error 404 на всех раздачах...
Что-то с сайтом творится..?


я заметил,что каждое утро такая вещь происходит...

_________________
маринасочи

Online
Стаж: 3 года 11 мес.
Сообщений: 961
Ratio: 2,715
84.37%
хорош фильм-смотриться на одном дыхании
skychap
Стаж: 3 года 7 мес.
Сообщений: 463
Ratio: 91,193
Поблагодарили: 329
100%
Откуда: От Москвы недал​еко..​.​
ussr.gif
Посадка Ту-204 на Неву
У нас тоже были асы.
А фильм действительно хорош, во всей красе показал их комитет по надзору, типа нашего МАКа
VAshdd
Стаж: 4 года 6 мес.
Сообщений: 574
Ratio: 10,597
22.42%
Пойдет разок посмотреть. Я про него помню док фильм смотрел.
egfel
Стаж: 8 лет 4 мес.
Сообщений: 31
Ratio: 4,574
Поблагодарили: 710
2.32%
ussr.gif
фильм хорош

_________________
viking1960
Стаж: 3 года 6 мес.
Сообщений: 260
Ratio: 39,711
100%
ukraine.gif
Как звук ? Будет ли iTunes ? Звук хорош ! Фильм снят здорово ! Хенкс на высоте !
Alexman121
Uploaders 300+
Модератор TV/Спорт RG NNM-Club DocTV
 
Стаж: 7 лет
Сообщений: 4148
Ratio: 73,682
Раздал: 431,4 TB
Поблагодарили: 41936
100%
Откуда: Крым - это Россия ;)
russia.gif
Цитата:
Будет ли iTunes ?

6-7 декабря будет

_________________
Топик был перенесен из форума Новинки (HD) в форум Архив Видео



Исправил релиз - напиши ЛС lexandros, дав ссылку на релиз.
Если нет ответа 24 часа - нажми на кнопку "Обратить внимание модераторов".
Показать сообщения:   
Начать новую тему   Ответить на тему    Торрент-трекер NNM-Club -> Архив торрентов -> Архив Видео Часовой пояс: GMT + 3
Страница 1 из 1