Интеллигентный торрент-трекер
canvas not supported
Нас вместе: 4 314 123

Чудо на Гудзоне / Sully (2016) BDRip [H.264/1080p] [Line]


Страницы:  1, 2, 3  След. 
 
RSS
Начать новую тему   Ответить на тему    Торрент-трекер NNM-Club -> Архив торрентов -> Архив Видео
Автор Сообщение
karfa​gen19​75​ ®
Стаж: 6 лет 3 мес.
Сообщений: 1183
Ratio: 38,346
Раздал: 22,9 TB
Поблагодарили: 61369
100%
Откуда: планета Земля
russia.gif
Чудо на Гудзоне / Sully (2016) BDRip [H.264/1080p]

Производство: США
Жанр: Драма, Биография

Режиссер: Клинт Иствуд
Актеры: Том Хэнкс, Аарон Экхарт, Валери Махаффей, Делфи Хэррингтон, Майк О’Мэлли, Джейми Шеридан, Анна Ганн, Холт МакКэллани, Ахмед Хуссэйн, Лора Линни, Лаура Ланди Уил, Онира Саттервайт

Описание:
Произошедшее 15 января 2009 года назовут «Чудом на Гудзоне». В тот день капитан рейса 1549 Чесли Салленбергер совершил аварийную посадку самолета A320 на холодные воды реки Гудзон в Нью-Йорке. При этом никто из находившихся на борту 155 человек не пострадал. Но, несмотря на все почести со стороны общественности и СМИ, было начато расследование, которое угрожало профессиональной репутации и многолетней карьере капитана Салли.


Возраст: 16+ (зрителям, достигшим 16 лет)
Рейтинг MPAA: PG-13 (детям до 13 лет просмотр нежелателен)
Дата мировой премьеры: 2 сентября 2016
Дата российской премьеры: 8 сентября 2016, «Каро-Премьер»

Продолжительность: 01:35:50
Качество видео: BDRip 1080p
Перевод: Дублированный (Чистый звук)
Язык субтитров: Английский (SDH)
Вид субтитров: Вшитые отключаемые
Реклама: Отсутствует

Видео: AVC, 1920x808 (2.35:1), 23.976 fps, 9 155 Kbps (0.246 bit/pixel)
Аудио #1: AC-3, 48.0 KHz, 2 ch, 192 Kbps, CBR (Russian)
Аудио #2: AC-3, 48.0 KHz, 6 ch, 640 Kbps, CBR (English)
Код: выделить все

General
Unique ID                   : 207011668333993280788661378260336184794 (0x9BBCFF412C18C39698672D0515510DDA)
Complete name               : C:\Sully.2016.1080p.BluRay.x264.NNMCLUB.mkv
Format                      : Matroska
Format version              : Version 4 / Version 2
File size                   : 6.68 GiB
Duration                    : 1 h 35 min
Overall bit rate            : 9 985 kb/s
Encoded date                : UTC 2016-12-03 12:52:04
Writing application         : mkvmerge v9.6.0 ('Slave To Your Mind') 64bit
Writing library             : libebml v1.3.4 + libmatroska v1.4.5

Video
ID                          : 1
Format                      : AVC
Format/Info                 : Advanced Video Codec
Format profile              : High@L4.1
Format settings, CABAC      : Yes
Format settings, ReFrames   : 5 frames
Codec ID                    : V_MPEG4/ISO/AVC
Duration                    : 1 h 35 min
Bit rate                    : 9 155 kb/s
Width                       : 1 920 pixels
Height                      : 808 pixels
Display aspect ratio        : 2.40:1
Frame rate mode             : Constant
Frame rate                  : 23.976 FPS
Color space                 : YUV
Chroma subsampling          : 4:2:0
Bit depth                   : 8 bits
Scan type                   : Progressive
Bits/(Pixel*Frame)          : 0.246
Stream size                 : 6.13 GiB (92%)
Title                       : NNMCLUB
Writing library             : x264 core 148 r2705 3f5ed56
Encoding settings           : cabac=1 / ref=5 / deblock=1:0:0 / analyse=0x3:0x133 / me=umh / subme=7 / psy=1 / psy_rd=1.00:0.00 / mixed_ref=1 / me_range=16 / chroma_me=1 / trellis=1 / 8x8dct=1 / cqm=0 / deadzone=21,11 / fast_pskip=0 / chroma_qp_offset=-2 / threads=18 / lookahead_threads=3 / sliced_threads=0 / nr=0 / decimate=1 / interlaced=0 / bluray_compat=0 / constrained_intra=0 / bframes=3 / b_pyramid=2 / b_adapt=1 / b_bias=0 / direct=1 / weightb=1 / open_gop=0 / weightp=2 / keyint=250 / keyint_min=23 / scenecut=40 / intra_refresh=0 / rc_lookahead=40 / rc=2pass / mbtree=1 / bitrate=9155 / ratetol=1.0 / qcomp=0.60 / qpmin=0 / qpmax=69 / qpstep=4 / cplxblur=20.0 / qblur=0.5 / ip_ratio=1.40 / aq=1:1.00
Language                    : English
Default                     : Yes
Forced                      : No

Audio #1
ID                          : 2
Format                      : AC-3
Format/Info                 : Audio Coding 3
Mode extension              : CM (complete main)
Format settings, Endianness : Big
Codec ID                    : A_AC3
Duration                    : 1 h 35 min
Bit rate mode               : Constant
Bit rate                    : 192 kb/s
Channel(s)                  : 2 channels
Channel positions           : Front: L R
Sampling rate               : 48.0 kHz
Frame rate                  : 31.250 FPS (1536 spf)
Compression mode            : Lossy
Stream size                 : 132 MiB (2%)
Title                       : LINE
Language                    : Russian
Default                     : Yes
Forced                      : No

Audio #2
ID                          : 3
Format                      : AC-3
Format/Info                 : Audio Coding 3
Mode extension              : CM (complete main)
Format settings, Endianness : Big
Codec ID                    : A_AC3
Duration                    : 1 h 35 min
Bit rate mode               : Constant
Bit rate                    : 640 kb/s
Channel(s)                  : 6 channels
Channel positions           : Front: L C R, Side: L R, LFE
Sampling rate               : 48.0 kHz
Frame rate                  : 31.250 FPS (1536 spf)
Compression mode            : Lossy
Stream size                 : 439 MiB (6%)
Language                    : English
Default                     : No
Forced                      : No

Text
ID                          : 4
Format                      : UTF-8
Codec ID                    : S_TEXT/UTF8
Codec ID/Info               : UTF-8 Plain Text
Duration                    : 1 h 35 min
Bit rate                    : 80 b/s
Count of elements           : 1642
Stream size                 : 56.4 KiB (0%)
Title                       : SDH
Language                    : English
Default                     : No
Forced                      : No
Скриншоты:

Все одноименные релизы в Клубе

Время раздачи: 24/7
Sully.2016.1080p.BluRay.x264.NNMCLUB.mkv.torrent
 Торрент: Платиновая раздача  Зарегистрирован
 
Примагнититься

Скачать
 Зарегистрирован:   03 Дек 2016 16:06:47
 Размер:   6,68 GB  (
 Рейтинг:   4,8 (Голосов: 248)
 Поблагодарили:   1442
 Проверка:   Оформление проверено модератором 03 Дек 2016 16:08:09
Как cкачать  ·  Как раздать  ·  Правильно оформить  ·  Поднять ратио!  
Full HD Video
RG Releasers
Uploader 100+
 
Стаж: 6 лет
Сообщений: 4935
Ratio: 1098,006
Раздал: 172,1 TB
Поблагодарили: 630453
100%
Откуда: Из мира кино.
nnm-club.gif
karfagen1975
Не забываем в заголовок добавлять [Line], если чистый звук.
karfa​gen19​75​ ®
Стаж: 6 лет 3 мес.
Сообщений: 1183
Ratio: 38,346
Раздал: 22,9 TB
Поблагодарили: 61369
100%
Откуда: планета Земля
russia.gif
Full HD Video
Хорошо, в следующий раз не забуду.
Оперативная проверка раздач, это радует, так держать...:подмигивание:
antondpi14

Online
Стаж: 3 года 4 мес.
Сообщений: 37
Ratio: 11,92
6.8%
russia.gif
Громадное спасибо, фильм классный, ждал качества чтобы еще раз им насладиться :клево:
promario73
Стаж: 8 лет 1 мес.
Сообщений: 14
Ratio: 4,16
4.34%
как фильм?
DenZz
Стаж: 9 лет 10 мес.
Сообщений: 78
Ratio: 13,278
1.98%
russia.gif
Sully.2016.1080p.BluRay.x264.NNMCLUB.mkv.torrent
Также, в следующий раз, наверное, в названии файла необходимо писать BDRip ;)
Спасибо за релиз :)
21dmitry21
Стаж: 5 лет 11 мес.
Сообщений: 93
Ratio: 0,242
0.03%
promario73 писал(а): Перейти к сообщению
как фильм?


Ответ : Да , как фильм
zhan104
Стаж: 6 лет 1 мес.
Сообщений: 13
Ratio: 1,006
0.17%
Фильм "на один раз". Немного скучноват,из реального события решили вытянуть "за уши" фильм-катастроф. Динамики маловато.Почитателям Тома Хэнкса.
serge​sha19​94​
Стаж: 1 год
Сообщений: 2
Ratio: 3,608
11%
Отличный фильм!
Ivan_pro
Стаж: 6 лет 9 мес.
Сообщений: 61
Ratio: 39,403
100%
Откуда: Вселенная
nnm-club.gif
Отличный фильм! Всем советую. Том Хэнкс держит марку!

_________________
-ВЫБОР ЕСТЬ-
-ДУМАЙ-
Home33
Стаж: 6 лет 5 мес.
Сообщений: 373
Ratio: 36,664
85.46%
russia.gif
Ivan_pro писал(а): Перейти к сообщению
Отличный фильм! Всем советую. Том Хэнкс держит марку!


Фильм крут! :подмигивание: Спасибо за Качество! =)
allx7
Стаж: 4 года
Сообщений: 2
Ratio: 39,027
0%
Отличный фильм, мне понравился (пересмотрел пару раз некоторые сцены крушения и спасения)
ka4-8
Стаж: 5 лет 9 мес.
Сообщений: 23
Ratio: 1,562
23.63%
columbia.gif
Очень хорошее кино! Спасибо! Возможно лучший пока фильм Клинта.
Pogreb2008
Стаж: 5 лет 9 мес.
Сообщений: 42
Ratio: 14,166
20.42%
ukraine.gif
ka4-8 писал(а): Перейти к сообщению
Очень хорошее кино! Спасибо! Возможно лучший пока фильм Клинта.

Я бы попросил подчеркивать что это ваше субъективное мнение.Так как Иствуд на столько многогранен и неповторим, что было бы странно утверждать , что именно этот фильм лучший.
Резиновый Тюбик
Стаж: 4 года 7 мес.
Сообщений: 31
Ratio: 2,533
0%
Как тут обстоят дела со звуком "Чистый звук" ? Действительно нормальный или как в недавней раздаче обман ? Сэмпл качать с файлообменника дикость, выкладывайте его пожалуйста в саму раздачу трекера, либо на ютуб
Показать сообщения:   
Начать новую тему   Ответить на тему    Торрент-трекер NNM-Club -> Архив торрентов -> Архив Видео Часовой пояс: GMT + 3
Страницы:  1, 2, 3  След.
Страница 1 из 3