Интеллигентный торрент-трекер
canvas not supported
Нас вместе: 4 326 950

Чудо на Гудзоне / Sully (2016) BDRip [H.264/1080p] [EN]


 
 
RSS
Начать новую тему   Ответить на тему    Торрент-трекер NNM-Club -> Зарубежное кино -> Фильмы в оригинале (HD)
Автор Сообщение
smaster67 ®
Модератор Видео
Покровитель талантов Uploader 300+
Стаж: 8 лет
Сообщений: 6671
Ratio: 202,946
Поблагодарили: 194238
100%
Чудо на Гудзоне / Sully (2016) BDRip [H.264/1080p] [EN]

Производство: США
Жанр: драма, биография

Режиссер: Клинт Иствуд
Актеры: Том Хэнкс, Аарон Экхарт, Валери Махаффей, Делфи Хэррингтон, Майк О’Мэлли, Джейми Шеридан, Анна Ганн, Холт МакКэллани, Ахмед Хуссэйн, Лора Линни, Лаура Ланди Уил, Онира Саттервайт

Описание:
Произошедшее 15 января 2009 года назовут «Чудом на Гудзоне». В тот день капитан рейса 1549 Чесли Салленбергер совершил аварийную посадку самолета A320 на холодные воды реки Гудзон в Нью-Йорке. При этом никто из находившихся на борту 155 человек не пострадал. Но, несмотря на все почести со стороны общественности и СМИ, было начато расследование, которое угрожало профессиональной репутации и многолетней карьере капитана Салли.

Продолжительность: 01:35:50
Качество видео: BDRip
Перевод: Отсутствует
Язык озвучки: Английский

Видео: AVC, 1920x808 (2.40:1), 9155 kbps, 23,976 fps, 0,246 bpp
Аудио: английский / AC3 / 5.1 / 48 kHz / 640 kbps /
Код: выделить все
General
Unique ID                               Sully.2016.1080p.mkv
Format                                   : Matroska
Format version                           : Version 4 / Version 2
File size                                : 6.56 GiB
Duration                                 : 1 h 35 min
Overall bit rate                         : 9 792 kb/s
Encoded date                             : UTC 2016-12-03 04:56:09
Writing application                      : mkvmerge v8.3.0 ('Over the Horizon') 64bit
Writing library                          : libebml v1.3.1 + libmatroska v1.4.2

Video
ID                                       : 1
Format                                   : AVC
Format/Info                              : Advanced Video Codec
Format profile                           : High@L4.1
Format settings, CABAC                   : Yes
Format settings, ReFrames                : 5 frames
Codec ID                                 : V_MPEG4/ISO/AVC
Duration                                 : 1 h 35 min
Bit rate                                 : 9 155 kb/s
Width                                    : 1 920 pixels
Height                                   : 808 pixels
Display aspect ratio                     : 2.40:1
Frame rate mode                          : Constant
Frame rate                               : 23.976 FPS
Color space                              : YUV
Chroma subsampling                       : 4:2:0
Bit depth                                : 8 bits
Scan type                                : Progressive
Bits/(Pixel*Frame)                       : 0.246
Stream size                              : 6.13 GiB (93%)
Writing library                          : x264 core 148 r2705 3f5ed56
Encoding settings                        : cabac=1 / ref=5 / deblock=1:0:0 / analyse=0x3:0x133 / me=umh / subme=7 / psy=1 / psy_rd=1.00:0.00 / mixed_ref=1 / me_range=16 / chroma_me=1 / trellis=1 / 8x8dct=1 / cqm=0 / deadzone=21,11 / fast_pskip=0 / chroma_qp_offset=-2 / threads=18 / lookahead_threads=3 / sliced_threads=0 / nr=0 / decimate=1 / interlaced=0 / bluray_compat=0 / constrained_intra=0 / bframes=3 / b_pyramid=2 / b_adapt=1 / b_bias=0 / direct=1 / weightb=1 / open_gop=0 / weightp=2 / keyint=250 / keyint_min=23 / scenecut=40 / intra_refresh=0 / rc_lookahead=40 / rc=2pass / mbtree=1 / bitrate=9155 / ratetol=1.0 / qcomp=0.60 / qpmin=0 / qpmax=69 / qpstep=4 / cplxblur=20.0 / qblur=0.5 / ip_ratio=1.40 / aq=1:1.00
Language                                 : English
Default                                  : Yes
Forced                                   : No

Audio
ID                                       : 2
Format                                   : AC-3
Format/Info                              : Audio Coding 3
Mode extension                           : CM (complete main)
Format settings, Endianness              : Big
Codec ID                                 : A_AC3
Duration                                 : 1 h 35 min
Bit rate mode                            : Constant
Bit rate                                 : 640 kb/s
Channel(s)                               : 6 channels
Channel positions                        : Front: L C R, Side: L R, LFE
Sampling rate                            : 48.0 kHz
Frame rate                               : 31.250 FPS (1536 spf)
Compression mode                         : Lossy
Stream size                              : 439 MiB (7%)
Language                                 : English
Default                                  : Yes
Forced                                   : No

Скриншоты:



Все одноименные релизы в Клубе

Время раздачи: с 13:00 до 23:00
[NNMClub.to]_Sully.2016.1080p.mkv.torrent
 Торрент: Золотая раздача  Зарегистрирован
 
Примагнититься

Зарегистрируйтесь и скачайте торрент!
33 KB
 Зарегистрирован:   03 Дек 2016 16:22:43
 Размер:   6,56 GB  (
 Рейтинг:   4,3 (Голосов: 11)
 Поблагодарили:   73
 Проверка:   Оформление проверено модератором 03 Дек 2016 16:23:15
Как cкачать  ·  Как раздать  ·  Правильно оформить  ·  Поднять ратио!  
Показать сообщения:   
Начать новую тему   Ответить на тему    Торрент-трекер NNM-Club -> Зарубежное кино -> Фильмы в оригинале (HD) Часовой пояс: GMT + 3
Страница 1 из 1