Интеллигентный торрент-трекер
canvas not supported
Нас вместе: 4 348 490

Влюблённые дети / Kids in Love (2016) BDRip [H.264/720p] [EN]


 
 
RSS
Начать новую тему   Ответить на тему    Торрент-трекер NNM-Club -> Зарубежное кино -> Фильмы в оригинале (HD)
Автор Сообщение
smaster67 ®
Модератор Видео
Покровитель талантов Uploader 300+
Стаж: 7 лет 10 мес.
Сообщений: 6629
Ratio: 198,686
Поблагодарили: 192369
100%
Влюблённые дети / Kids in Love (2016) BDRip [H.264/720p] [EN]

Производство: Великобритания
Жанр: драма

Режиссер: Крис Фоггин
Актеры: Уилл Поултер, Альма Ходоровски, Себастьян де Соуса, Кара Делевинь, Гала Гордон, Джейми Блэкли, Пип Торренс, Джеральдин Сомервилль, Джек Фокс

Описание:
«Золотая молодежь», дети богатых родителей, с рождения привыкли быть центрами мира, привыкли, что не надо думать о завтрашнем дне, а если вдруг что-то случится – деньги их родителей все решат. Это влияет не только на их поведение и образ жизни, но и на восприятие мира и окружающих. Смогут ли они когда-нибудь осознать, что ответственность за свои поступки несет сам человек?



Продолжительность: 01:26:39
Качество видео: BDRip
Перевод: Отсутствует
Язык озвучки: Английский

Видео: AVC, 1280x536 (2.40:1), 5699 kbps, 24 fps, 0,346 bpp
Аудио: DTS / 5.1 / 48 kHz / 1509 kbps / 24 bit
Код: выделить все
General
Unique ID                                Kids in Love-720p.mkv
Format                                   : Matroska
Format version                           : Version 4 / Version 2
File size                                : 4.36 GiB
Duration                                 : 1 h 26 min
Overall bit rate                         : 7 210 kb/s
Encoded date                             : UTC 2016-12-03 08:10:58
Writing application                      : mkvmerge v9.0.1 ('Obstacles') 64bit
Writing library                          : libebml v1.3.3 + libmatroska v1.4.4

Video
ID                                       : 1
Format                                   : AVC
Format/Info                              : Advanced Video Codec
Format profile                           : High@L4.1
Format settings, CABAC                   : Yes
Format settings, ReFrames                : 5 frames
Codec ID                                 : V_MPEG4/ISO/AVC
Duration                                 : 1 h 26 min
Bit rate                                 : 5 699 kb/s
Width                                    : 1 280 pixels
Height                                   : 536 pixels
Display aspect ratio                     : 2.40:1
Frame rate mode                          : Constant
Frame rate                               : 24.000 FPS
Color space                              : YUV
Chroma subsampling                       : 4:2:0
Bit depth                                : 8 bits
Scan type                                : Progressive
Bits/(Pixel*Frame)                       : 0.346
Stream size                              : 3.45 GiB (79%)
Writing library                          : x264 core 148 r2705 3f5ed56
Encoding settings                        : cabac=1 / ref=5 / deblock=1:0:0 / analyse=0x3:0x113 / me=umh / subme=8 / psy=1 / psy_rd=1.00:0.00 / mixed_ref=1 / me_range=16 / chroma_me=1 / trellis=1 / 8x8dct=1 / cqm=0 / deadzone=21,11 / fast_pskip=0 / chroma_qp_offset=-2 / threads=17 / lookahead_threads=2 / sliced_threads=0 / nr=0 / decimate=1 / interlaced=0 / bluray_compat=0 / constrained_intra=0 / bframes=3 / b_pyramid=2 / b_adapt=2 / b_bias=0 / direct=3 / weightb=1 / open_gop=0 / weightp=2 / keyint=250 / keyint_min=24 / scenecut=40 / intra_refresh=0 / rc_lookahead=50 / rc=2pass / mbtree=1 / bitrate=5699 / ratetol=1.0 / qcomp=0.60 / qpmin=0 / qpmax=69 / qpstep=4 / cplxblur=20.0 / qblur=0.5 / ip_ratio=1.40 / aq=1:1.00
Default                                  : Yes
Forced                                   : No

Audio
ID                                       : 2
Format                                   : DTS
Format/Info                              : Digital Theater Systems
Mode                                     : 16
Format settings, Endianness              : Big
Codec ID                                 : A_DTS
Duration                                 : 1 h 26 min
Bit rate mode                            : Constant
Bit rate                                 : 1 509 kb/s
Channel(s)                               : 6 channels
Channel positions                        : Front: L C R, Side: L R, LFE
Sampling rate                            : 48.0 kHz
Frame rate                               : 93.750 FPS (512 spf)
Bit depth                                : 24 bits
Compression mode                         : Lossy
Stream size                              : 935 MiB (21%)
Default                                  : Yes
Forced                                   : No

Menu
00:00:00.000                             : en:00:00:00.000
00:03:42.708                             : en:00:03:42.708
00:09:29.583                             : en:00:09:29.583
00:15:48.250                             : en:00:15:48.250
00:19:58.958                             : en:00:19:58.958
00:25:12.375                             : en:00:25:12.375
00:29:30.458                             : en:00:29:30.458
00:34:40.500                             : en:00:34:40.500
00:40:07.417                             : en:00:40:07.417
00:44:00.875                             : en:00:44:00.875
00:47:02.042                             : en:00:47:02.042
00:51:37.250                             : en:00:51:37.250
00:56:28.708                             : en:00:56:28.708
01:03:35.625                             : en:01:03:35.625
01:10:09.417                             : en:01:10:09.417
01:15:09.750                             : en:01:15:09.750
01:19:05.708                             : en:01:19:05.708
01:22:41.208                             : en:01:22:41.208

Скриншоты:



Все одноименные релизы в Клубе

Время раздачи: с 13:00 до 23:00
[NNMClub.to]_Kids in Love-720p.mkv.torrent
 Торрент: Серебряная раздча  Зарегистрирован
 
Примагнититься
Free Leech
Зарегистрируйтесь и скачайте торрент!
22 KB
 Зарегистрирован:   03 Дек 2016 23:29:57
 Размер:   4,36 GB  (
 Рейтинг:    (Голосов: 5)
 Поблагодарили:   36
 Проверка:   Оформление проверено модератором 03 Дек 2016 23:31:29
Как cкачать  ·  Как раздать  ·  Правильно оформить  ·  Поднять ратио!  
Загрузка...
Показать сообщения:   
Начать новую тему   Ответить на тему    Торрент-трекер NNM-Club -> Зарубежное кино -> Фильмы в оригинале (HD) Часовой пояс: GMT + 3
Страница 1 из 1