Интеллигентный торрент-трекер
canvas not supported
Нас вместе: 4 328 968

Дом странных детей Мисс Перегрин / Miss Peregrine's Home for Peculiar Children (2016) BDRip [H.264/720p] [EN]


 
 
RSS
Начать новую тему   Ответить на тему    Торрент-трекер NNM-Club -> Зарубежное кино -> Фильмы в оригинале (HD)
Автор Сообщение
smaster67 ®
Модератор Видео
Покровитель талантов Uploader 300+
Стаж: 8 лет
Сообщений: 6671
Ratio: 202,853
Поблагодарили: 194201
100%
Дом странных детей Мисс Перегрин / Miss Peregrine's Home for Peculiar Children (2016) BDRip [H.264/720p] [EN]

Производство: США, Великобритания, Бельгия
Жанр: фэнтези, драма, приключения, семейный

Режиссер: Тим Бёртон
Актеры: Ева Грин, Эйса Баттерфилд, Сэмюэл Л. Джексон, Джуди Денч, Руперт Эверетт, Эллисон Дженни, Крис О’Дауд, Теренс Стэмп, Элла Пернелл, Финлэй МакМиллан, Лорен МакКрости, Хейден Килер-Стоун

Описание:
Детство Джейкоба прошло под рассказы дедушки о приюте для необычных детей. Среди его обитателей девочка, которая умела держать в руках огонь, девочка, чьи ноги не касались земли, невидимый мальчик и близнецы, умевшие общаться без слов. Когда дедушка умирает, 16-летний Джейкоб получает загадочное письмо и отправляется на остров, где вырос его дед. Там он находит детей, которых раньше видел только на фотографиях.



Продолжительность: 02:06:55
Качество видео: BDRip
Перевод: Отсутствует
Язык озвучки: Английский

Видео: AVC, 1280x696 (1.85:1), 4653 kbps, 23,976 fps, 0,218 bpp
Аудио: английский / DTS / 48 kHz / 1509 kbps / 24 bit
Код: выделить все
General
Unique ID                               Miss.Peregrines.Home.for.Peculiar.Children.2016.720p.mkv
Format                                   : Matroska
Format version                           : Version 4 / Version 2
File size                                : 5.46 GiB
Duration                                 : 2 h 6 min
Overall bit rate                         : 6 164 kb/s
Encoded date                             : UTC 2016-12-03 21:53:05
Writing application                      : mkvmerge v8.3.0 ('Over the Horizon') 64bit
Writing library                          : libebml v1.3.1 + libmatroska v1.4.2

Video
ID                                       : 1
Format                                   : AVC
Format/Info                              : Advanced Video Codec
Format profile                           : High@L4.1
Format settings, CABAC                   : Yes
Format settings, ReFrames                : 5 frames
Codec ID                                 : V_MPEG4/ISO/AVC
Duration                                 : 2 h 6 min
Bit rate                                 : 4 653 kb/s
Width                                    : 1 280 pixels
Height                                   : 696 pixels
Display aspect ratio                     : 1.85:1
Frame rate mode                          : Constant
Frame rate                               : 23.976 FPS
Color space                              : YUV
Chroma subsampling                       : 4:2:0
Bit depth                                : 8 bits
Scan type                                : Progressive
Bits/(Pixel*Frame)                       : 0.218
Stream size                              : 4.13 GiB (75%)
Writing library                          : x264 core 148 r2705 3f5ed56
Encoding settings                        : cabac=1 / ref=5 / deblock=1:0:0 / analyse=0x3:0x133 / me=umh / subme=7 / psy=1 / psy_rd=1.00:0.00 / mixed_ref=1 / me_range=16 / chroma_me=1 / trellis=1 / 8x8dct=1 / cqm=0 / deadzone=21,11 / fast_pskip=0 / chroma_qp_offset=-2 / threads=12 / lookahead_threads=2 / sliced_threads=0 / nr=0 / decimate=1 / interlaced=0 / bluray_compat=0 / constrained_intra=0 / bframes=3 / b_pyramid=2 / b_adapt=1 / b_bias=0 / direct=1 / weightb=1 / open_gop=0 / weightp=2 / keyint=250 / keyint_min=23 / scenecut=40 / intra_refresh=0 / rc_lookahead=40 / rc=2pass / mbtree=1 / bitrate=4653 / ratetol=1.0 / qcomp=0.60 / qpmin=0 / qpmax=69 / qpstep=4 / cplxblur=20.0 / qblur=0.5 / ip_ratio=1.40 / aq=1:1.00
Language                                 : English
Default                                  : Yes
Forced                                   : No

Audio
ID                                       : 2
Format                                   : DTS
Format/Info                              : Digital Theater Systems
Format profile                           : ES Matrix / Core
Mode                                     : 16
Format settings, Endianness              : Big
Codec ID                                 : A_DTS
Duration                                 : 2 h 6 min
Bit rate mode                            : Constant
Bit rate                                 : 1 509 kb/s
Channel(s)                               : 7 channels / 6 channels
Channel positions                        : Front: L C R, Side: L R, Back: C, LFE / Front: L C R, Side: L R, LFE
Sampling rate                            : 48.0 kHz
Frame rate                               : 93.750 FPS (512 spf)
Bit depth                                : 24 bits
Compression mode                         : Lossy
Stream size                              : 1.34 GiB (24%)
Language                                 : English
Default                                  : Yes
Forced                                   : No

Menu
00:00:00.000                             : en:00:00:00.000
00:03:40.804                             : en:00:03:40.804
00:08:38.017                             : en:00:08:38.017
00:13:06.828                             : en:00:13:06.828
00:15:26.551                             : en:00:15:26.551
00:19:47.478                             : en:00:19:47.478
00:23:23.652                             : en:00:23:23.652
00:27:47.040                             : en:00:27:47.040
00:31:06.448                             : en:00:31:06.448
00:34:36.783                             : en:00:34:36.783
00:39:34.998                             : en:00:39:34.998
00:42:42.810                             : en:00:42:42.810
00:46:05.638                             : en:00:46:05.638
00:48:36.497                             : en:00:48:36.497
00:54:16.462                             : en:00:54:16.462
00:57:21.480                             : en:00:57:21.480
01:02:03.261                             : en:01:02:03.261
01:08:20.847                             : en:01:08:20.847
01:14:29.006                             : en:01:14:29.006
01:18:54.063                             : en:01:18:54.063
01:24:15.300                             : en:01:24:15.300
01:28:42.442                             : en:01:28:42.442
01:33:11.753                             : en:01:33:11.753
01:36:29.033                             : en:01:36:29.033
01:40:43.788                             : en:01:40:43.788
01:46:09.238                             : en:01:46:09.238
01:53:35.308                             : en:01:53:35.308
02:00:34.394                             : en:02:00:34.394

Скриншоты:



Все одноименные релизы в Клубе

Время раздачи: с 13:00 до 23:00
[NNMClub.to]_Miss.Peregrines.Home.for.Peculiar.Children.2016.720p.mkv.torrent
 Торрент: Серебряная раздча  Зарегистрирован
 
Примагнититься

Зарегистрируйтесь и скачайте торрент!
27,5 KB
 Зарегистрирован:   04 Дек 2016 10:53:33
 Размер:   5,46 GB  (
 Рейтинг:   4,6 (Голосов: 14)
 Поблагодарили:   54
 Проверка:   Оформление проверено модератором 04 Дек 2016 10:55:06
Как cкачать  ·  Как раздать  ·  Правильно оформить  ·  Поднять ратио!  
zettt
Стаж: 8 лет 4 мес.
Сообщений: 656
Ratio: 10,633
Раздал: 17,75 TB
100%
ukraine.gif
посмотрел и понял, что не понимаю гения Бартона
Показать сообщения:   
Начать новую тему   Ответить на тему    Торрент-трекер NNM-Club -> Зарубежное кино -> Фильмы в оригинале (HD) Часовой пояс: GMT + 3
Страница 1 из 1