Интеллигентный торрент-трекер
canvas not supported
Нас вместе: 4 311 836

Влюблённые дети / Kids in Love (2016) BDRemux [H.264/1080p] [EN / Ger Sub]


 
 
RSS
Начать новую тему   Ответить на тему    Торрент-трекер NNM-Club -> Зарубежное кино -> Фильмы в оригинале (HD)
Автор Сообщение
smaster67 ®
Модератор Видео
Покровитель талантов Uploader 300+
Стаж: 7 лет 8 мес.
Сообщений: 6594
Ratio: 193,122
Поблагодарили: 190217
100%
Влюблённые дети / Kids in Love (2016) BDRemux [H.264/1080p] [EN / Ger Sub]

Производство: Великобритания
Жанр: драма

Режиссер: Крис Фоггин
Актеры: Уилл Поултер, Альма Ходоровски, Себастьян де Соуса, Кара Делевинь, Гала Гордон, Джейми Блэкли, Пип Торренс, Джеральдин Сомервилль, Джек Фокс

Описание:
«Золотая молодежь», дети богатых родителей, с рождения привыкли быть центрами мира, привыкли, что не надо думать о завтрашнем дне, а если вдруг что-то случится – деньги их родителей все решат. Это влияет не только на их поведение и образ жизни, но и на восприятие мира и окружающих. Смогут ли они когда-нибудь осознать, что ответственность за свои поступки несет сам человек?



Продолжительность: 01:26:39
Качество видео: BDRemux
Перевод: Отсутствует
Язык озвучки: Английский
Язык субтитров: немецкий
Вид субтитров: Вшитые

Видео: AVC, 1920x1080 (16:9), 34730 kbps, 24 fps, 0,698 bpp
Аудио: английский / DTS-HD / 5.1 / 48 kHz / 3731 kbps / 24 bit (Core: 5.1 / 48 kHz / 1509 kbps / 24 bit)
Код: выделить все
General
Unique ID                               Kids.in.Love.2016.REMUX.1080p.BluRay.AVC.DTS-HD.MA5.1-iFT.mkv
Format                                   : Matroska
Format version                           : Version 4 / Version 2
File size                                : 23.3 GiB
Duration                                 : 1 h 26 min
Overall bit rate mode                    : Variable
Overall bit rate                         : 38.5 Mb/s
Movie name                               : Kids In Love
Encoded date                             : UTC 2016-12-04 07:41:32
Writing application                      : mkvmerge v9.4.2 ('So High') 64bit
Writing library                          : libebml v1.3.4 + libmatroska v1.4.5

Video
ID                                       : 1
Format                                   : AVC
Format/Info                              : Advanced Video Codec
Format profile                           : High@L4.1
Format settings, CABAC                   : Yes
Format settings, ReFrames                : 4 frames
Codec ID                                 : V_MPEG4/ISO/AVC
Duration                                 : 1 h 26 min
Bit rate mode                            : Variable
Bit rate                                 : 34.7 Mb/s
Maximum bit rate                         : 36.0 Mb/s
Width                                    : 1 920 pixels
Height                                   : 1 080 pixels
Display aspect ratio                     : 16:9
Frame rate mode                          : Constant
Frame rate                               : 24.000 FPS
Color space                              : YUV
Chroma subsampling                       : 4:2:0
Bit depth                                : 8 bits
Scan type                                : Progressive
Bits/(Pixel*Frame)                       : 0.698
Stream size                              : 21.0 GiB (90%)
Language                                 : English
Default                                  : No
Forced                                   : No

Audio
ID                                       : 2
Format                                   : DTS
Format/Info                              : Digital Theater Systems
Format profile                           : MA / Core
Mode                                     : 16
Format settings, Endianness              : Big
Codec ID                                 : A_DTS
Duration                                 : 1 h 26 min
Bit rate mode                            : Variable / Constant
Bit rate                                 : 3 731 kb/s / 1 509 kb/s
Channel(s)                               : 6 channels
Channel positions                        : Front: L C R, Side: L R, LFE
Sampling rate                            : 48.0 kHz
Frame rate                               : 93.750 FPS (512 spf)
Bit depth                                : 24 bits
Compression mode                         : Lossless / Lossy
Stream size                              : 2.26 GiB (10%)
Title                                    : Surround 5.1
Language                                 : English
Default                                  : Yes
Forced                                   : No

Text #1
ID                                       : 3
Format                                   : PGS
Muxing mode                              : zlib
Codec ID                                 : S_HDMV/PGS
Codec ID/Info                            : Picture based subtitle format used on BDs/HD-DVDs
Duration                                 : 1 h 19 min
Bit rate                                 : 25.8 kb/s
Count of elements                        : 1762
Stream size                              : 14.7 MiB (0%)
Language                                 : German
Default                                  : Yes
Forced                                   : No

Text #2
ID                                       : 4
Format                                   : PGS
Muxing mode                              : zlib
Codec ID                                 : S_HDMV/PGS
Codec ID/Info                            : Picture based subtitle format used on BDs/HD-DVDs
Duration                                 : 32 min
Bit rate                                 : 365 b/s
Count of elements                        : 10
Stream size                              : 88.1 KiB (0%)
Language                                 : German
Default                                  : No
Forced                                   : No

Menu
00:00:00.000                             : en:Chapter 01
00:03:42.708                             : en:Chapter 02
00:09:29.583                             : en:Chapter 03
00:15:48.250                             : en:Chapter 04
00:19:58.958                             : en:Chapter 05
00:25:12.375                             : en:Chapter 06
00:29:30.458                             : en:Chapter 07
00:34:40.500                             : en:Chapter 08
00:40:07.416                             : en:Chapter 09
00:44:00.875                             : en:Chapter 10
00:47:02.041                             : en:Chapter 11
00:51:37.250                             : en:Chapter 12
00:56:28.708                             : en:Chapter 13
01:03:35.625                             : en:Chapter 14
01:10:09.416                             : en:Chapter 15
01:15:09.750                             : en:Chapter 16
01:19:05.708                             : en:Chapter 17
01:22:41.208                             : en:Chapter 18

Скриншоты:



Все одноименные релизы в Клубе

Время раздачи: с 13:00 до 23:00
[NNMClub.to]_Kids.in.Love.2016.REMUX.1080p.BluRay.AVC.DTS-HD.MA5.1-iFT.mkv.torrent
 Торрент: Золотая раздача  Зарегистрирован
 
Примагнититься
Free Leech
Зарегистрируйтесь и скачайте торрент!
117 KB
 Зарегистрирован:   04 Дек 2016 18:49:23
 Размер:   23,3 GB  (
 Рейтинг:    (Голосов: 4)
 Поблагодарили:   34
 Проверка:   Оформление проверено модератором 04 Дек 2016 18:50:41
Как cкачать  ·  Как раздать  ·  Правильно оформить  ·  Поднять ратио!  
Показать сообщения:   
Начать новую тему   Ответить на тему    Торрент-трекер NNM-Club -> Зарубежное кино -> Фильмы в оригинале (HD) Часовой пояс: GMT + 3
Страница 1 из 1